img image001 image001 image001 image001 image001 image001 image001 image001 image001 image001 image001 image001 image001 image001 image001

Planets Sun Sun Sun
Статистика раздачи
Автор: Nickolas3434 | Размер: 1.7 ГБ | Добавлен: 07 ноя 2015
Раздают: 125    Качают: 31
Скачать торрент
Скачать торрент
Описание торрента

СообщениеДобавлено: 07 ноя 2015 


Информация о фильме
Название: Инспектор ГАИ
Год выхода: 1982
Жанр: Драма
Режиссер: Эльдор Уразбаев
В ролях: Сергей Никоненко, Никита Михалков, Олег Ефремов, Марина Левтова, Николай Парфенов, Виктор Ильичев, Раиса Рязанова, Юрий Кузьменков, Николай Засухин, Евгений Перов, Анатолий Ганшин, Данила Петров.
О фильме: Образ на редкость честного инспектора ГАИ, пострадавшего за свою принципиальность, стоит в одном ряду с самыми любимыми милиционерами советского экрана. Петр Зыкин, скромный инспектор ГАИ, однажды останавливает наглого и откровенного нарушителя — директора станции техобслуживания Турнова. Штрафник пытается воспользоваться своими связями и "поставить на место" не в меру ретивого милиционера...
Страна: СССР
Продолжительность: 01:15:35
Перевод: не требуется
Файл
Кодек: x264
Качество: DVDRip-AVC
Видео: MPEG-4 AVC, 2580 Кбит/с, 700x566@746x566
Звук: АС3, 6 ch, 448 Кбит/с, AC3, 1 ch, 192 Кбит/с

raw [info]: 700x566p 16:15 @ 25/1 fps (cfr)
x264 [info]: using SAR=16/15
x264 [info]: using cpu capabilities: MMX2 SSE2Fast SSSE3 SSE4.2 AVX
x264 [info]: profile High, level 4.1
x264 [info]: frame I:565 Avg QP:16.46 size: 76390
x264 [info]: frame P:27972 Avg QP:20.26 size: 29492
x264 [info]: frame B:84855 Avg QP:21.94 size: 7003
===============================================================================================================
Общее
Уникальный идентификатор : 227856986300956238484791303847890575448 (0xAB6BA8C796BFD11E8AE29BE548BAE058)
Полное имя : D:Инспектор ГАИ_1982-DVDRip-AVC.mkv
Формат : Matroska
Версия формата : Version 2
Размер файла : 1,70 Гбайт
Продолжительность : 1 ч. 15 м.
Общий поток : 3221 Кбит/сек
Дата кодирования : UTC 2015-11-05 14:23:51
Программа кодирования : mkvmerge v5.8.0 ('No Sleep / Pillow') built on Sep 2 2012 15:37:04
Библиотека кодирования : libebml v1.2.3 + libmatroska v1.3.0
Видео
Идентификатор : 1
Формат : AVC
Формат/Информация : Advanced Video Codec
Профиль формата : High@L4.1
Параметр CABAC формата : Да
Параметр ReFrames формата : 15 кадров
Идентификатор кодека : V_MPEG4/ISO/AVC
Продолжительность : 1 ч. 15 м.
Битрейт : 2580 Кбит/сек
Ширина : 700 пикселей
Высота : 566 пикселей
Соотношение сторон : 4:3
Соотношение сторон в оригинале : 4:3
Режим частоты кадров : Постоянный
Частота кадров : 25,000 кадров/сек
Цветовое пространство : YUV
Субдискретизация насыщенности : 4:2:0
Битовая глубина : 8 бит
Тип развёртки : Прогрессивная
Бит/(Пиксели*Кадры) : 0.260
Размер потока : 1,33 Гбайт (78%)
Библиотека кодирования : x264 core 146 r2538 121396c
Настройки программы : cabac=1 / ref=15 / deblock=1:-2:-2 / analyse=0x3:0x133 / me=umh / subme=10 / psy=1 / psy_rd=1.05:0.15 / mixed_ref=1 / me_range=32 / chroma_me=1 / trellis=2 / 8x8dct=1 / cqm=0 / deadzone=21,11 / fast_pskip=0 / chroma_qp_offset=-3 / threads=12 / lookahead_threads=3 / sliced_threads=0 / nr=0 / decimate=0 / interlaced=0 / bluray_compat=0 / constrained_intra=0 / bframes=10 / b_pyramid=2 / b_adapt=2 / b_bias=0 / direct=3 / weightb=1 / open_gop=0 / weightp=2 / keyint=250 / keyint_min=25 / scenecut=40 / intra_refresh=0 / rc=2pass / mbtree=0 / bitrate=2580 / ratetol=1.0 / qcomp=0.63 / qpmin=0 / qpmax=39 / qpstep=4 / cplxblur=20.0 / qblur=0.5 / ip_ratio=1.40 / pb_ratio=1.30 / aq=1:1.00
Язык : English
Default : Да
Forced : Нет
Цветовой диапазон : Limited
Основные цвета : BT.601 PAL
Характеристики трансфера : BT.470 System B, BT.470 System G
Коэффициенты матрицы : BT.601
Аудио #1
Идентификатор : 2
Формат : AC-3
Формат/Информация : Audio Coding 3
Расширение режима : CM (complete main)
Параметр Endianness формата : Big
Идентификатор кодека : A_AC3
Продолжительность : 1 ч. 15 м.
Вид битрейта : Постоянный
Битрейт : 448 Кбит/сек
Каналы : 6 каналов
Расположение каналов : Front: L C R, Side: L R, LFE
Частота : 48,0 КГц
Метод сжатия : С потерями
Размер потока : 242 Мбайт (14%)
Язык : Russian
Default : Да
Forced : Нет
Аудио #2
Идентификатор : 3
Формат : AC-3
Формат/Информация : Audio Coding 3
Расширение режима : CM (complete main)
Параметр Endianness формата : Big
Идентификатор кодека : A_AC3
Продолжительность : 1 ч. 15 м.
Вид битрейта : Постоянный
Битрейт : 192 Кбит/сек
Каналы : 1 канал
Расположение каналов : Front: C
Частота : 48,0 КГц
Метод сжатия : С потерями
Размер потока : 104 Мбайт (6%)
Язык : Russian
Default : Нет
Forced : Нет

Релиз от:
Автор релиза:



   Похожие торренты   Торрент   Размер 
В этой теме нет новых непрочитанных сообщений. Инспектор ГАИ (1982) HDDVDRip 720p от ExKinoRay

196 | 67

2.89 ГБ

В этой теме нет новых непрочитанных сообщений. Инспектор ГАИ (1982) DVDRip от PowerTracker

64 | 10

1.37 ГБ

В этой теме нет новых непрочитанных сообщений. Инспектор ГАИ (1982) DVDRip-AVC от PowerTracker

440 | 15

1.45 ГБ

В этой теме нет новых непрочитанных сообщений. Инспектор Лосев (1982) DVDRip

57 | 17

2.05 ГБ

В этой теме нет новых непрочитанных сообщений. Инспектор ГАИ (1982) DVDRip от Киномагия

15 | 7

1.37 ГБ

В этой теме нет новых непрочитанных сообщений. Инспектор Гулл (1979) SATRip-AVC от ExKinoRay

52 | 8

2.22 ГБ

В этой теме нет новых непрочитанных сообщений. Инспектор Ван Ветерен [6 фильмов] / Van Veeteren (2006) WEB-DL 720p от ExKinoRay | Р

101 | 17

10.17 ГБ




Вы не можете начинать темы
Вы не можете отвечать на сообщения
Вы не можете редактировать свои сообщения
Вы не можете удалять свои сообщения
Вы не можете добавлять вложения

Перейти:  
Для Мосгорсуда, Роскомнадзора и рекламодателей: mosgorsud-torrent[собачка]yandex.ru
 Вход
ppkBB3cker v.2 © 2008-2014 @ PPK
[ Time : 0.114s | 14 Queries | GZIP : Off ]

Торрент трекер RUTOR.IN, Не можете зайти на rutor.org? Какой новый адрес рутор? Какое зеркало рутор? Не работает rutor.org и зеркала? Тогда наш торрент специально для вас. Rutor.in неофициальное зеркало rutor. В случае если у Вас заблокирован rutor или вдруг Вы не можете на него зайти, то Вы без труда сможете скачать бесплатно и без рекламы последние новинки кино, игр, сериалов и прочего у нас, на Rutor.in. Не нужно использовать прокси, чтобы зайти на рутор, достаточно воспользоваться нашим ресурсом. Все новые фильмы, игры, сериалы, книги и музыка за 2013 и 2014 годы через торрент бесплатно. Скачивайте фильмы в хорошем качестве, игры для пк, xbox, playstation без регистрации. У нас вы найдете новые Зарубежные сериалы и Русские сериалы 2013, 2014, 2015 годов. Оставайтесь с нами, качайте любимые фильмы, игры, сериалы, книги и музыку.