img image001 image001 image001 image001 image001 image001 image001 image001 image001 image001 image001 image001 image001 image001 image001

Planets Sun Sun Sun
Статистика раздачи
Автор: Nickolas3434 | Размер: 1.76 ГБ | Добавлен: 06 ноя 2015
Раздают: 91    Качают: 17
Скачать торрент
Скачать торрент
Описание торрента

СообщениеДобавлено: 06 ноя 2015 


Информация о фильме
Название: Без свидетелей
Год выхода: 1983
Жанр: Драма, мелодрама
Режиссер: Никита Михалков
В ролях: Ирина Купченко, Михаил Ульянов
О фильме: Действие фильма происходит в замкнутом пространстве двухкомнатной квартиры. В кадре всего два действующих лица - Он и Она, его бывшая жена. Грустная история двух людей, некогда любивших друг друга. Когда-то Он оставил жену и сына, чтобы жениться на дочери академика, тем самым обеспечив себе блестящую карьеру и благополучное будущее. Узнав, что бывшая жена выходит замуж за человека, от которого теперь зависит его будущее, но которого Он когда-то оклеветал, написав на него анонимку, герой наносит визит бывшей жене с целью узнать, что Она помнит и знает о прошлом. Из страха разоблачения Он требует, чтобы Она изменила свое решение. Главным его «козырем» становится сын Дима, который не знает, что Она - не родная его мать. Она вынуждена выбирать между личным счастьем и любовью и спокойствием сына. Он может торжествовать, но неожиданно до него доходит гнусность того, что Он делает, низость и бесплодность всей его жизни.
Страна: СССР
Продолжительность: 01:29:44
Перевод: не требуется
Файл
Кодек: x264
Качество: DVDRip-AVC
Видео: MPEG-4 AVC, 2170 Кбит/с, 714x574@761x574
Звук: AC3, 6 ch, 448 Кбит/с, AC3, 1 ch, 192 Кбит/с

Общее
Уникальный идентификатор : 202833062268525499006554421345321007199 (0x98983A11C22553D1BF9A94291AF8B85F)
Полное имя : D:Без свидетелей_1983-DVDRip-AVC.mkv
Формат : Matroska
Версия формата : Version 2
Размер файла : 1,76 Гбайт
Продолжительность : 1 ч. 29 м.
Общий поток : 2812 Кбит/сек
Дата кодирования : UTC 2015-11-06 00:03:41
Программа кодирования : mkvmerge v5.8.0 ('No Sleep / Pillow') built on Sep 2 2012 15:37:04
Библиотека кодирования : libebml v1.2.3 + libmatroska v1.3.0
Видео
Идентификатор : 1
Формат : AVC
Формат/Информация : Advanced Video Codec
Профиль формата : High@L4.1
Параметр CABAC формата : Да
Параметр ReFrames формата : 14 кадров
Идентификатор кодека : V_MPEG4/ISO/AVC
Продолжительность : 1 ч. 29 м.
Битрейт : 2170 Кбит/сек
Ширина : 714 пикселей
Высота : 574 пикселя
Соотношение сторон : 4:3
Соотношение сторон в оригинале : 4:3
Режим частоты кадров : Постоянный
Частота кадров : 25,000 кадров/сек
Цветовое пространство : YUV
Субдискретизация насыщенности : 4:2:0
Битовая глубина : 8 бит
Тип развёртки : Прогрессивная
Бит/(Пиксели*Кадры) : 0.212
Размер потока : 1,33 Гбайт (75%)
Библиотека кодирования : x264 core 146 r2538 121396c
Настройки программы : cabac=1 / ref=14 / deblock=1:-2:-2 / analyse=0x3:0x133 / me=umh / subme=10 / psy=1 / psy_rd=1.05:0.00 / mixed_ref=1 / me_range=32 / chroma_me=1 / trellis=2 / 8x8dct=1 / cqm=0 / deadzone=21,11 / fast_pskip=0 / chroma_qp_offset=-2 / threads=12 / lookahead_threads=3 / sliced_threads=0 / nr=0 / decimate=0 / interlaced=0 / bluray_compat=0 / constrained_intra=0 / bframes=10 / b_pyramid=2 / b_adapt=2 / b_bias=0 / direct=3 / weightb=1 / open_gop=0 / weightp=2 / keyint=250 / keyint_min=25 / scenecut=40 / intra_refresh=0 / rc=2pass / mbtree=0 / bitrate=2170 / ratetol=1.0 / qcomp=0.63 / qpmin=0 / qpmax=39 / qpstep=4 / cplxblur=20.0 / qblur=0.5 / ip_ratio=1.40 / pb_ratio=1.30 / aq=1:1.00
Язык : English
Default : Да
Forced : Нет
Цветовой диапазон : Limited
Основные цвета : BT.601 PAL
Характеристики трансфера : BT.470 System B, BT.470 System G
Коэффициенты матрицы : BT.601
Аудио #1
Идентификатор : 2
Формат : AC-3
Формат/Информация : Audio Coding 3
Расширение режима : CM (complete main)
Параметр Endianness формата : Big
Идентификатор кодека : A_AC3
Продолжительность : 1 ч. 29 м.
Вид битрейта : Постоянный
Битрейт : 448 Кбит/сек
Каналы : 6 каналов
Расположение каналов : Front: L C R, Side: L R, LFE
Частота : 48,0 КГц
Метод сжатия : С потерями
Задержка видео : 2 с. 292 мс.
Размер потока : 288 Мбайт (16%)
Язык : Russian
Default : Да
Forced : Нет
Аудио #2
Идентификатор : 3
Формат : AC-3
Формат/Информация : Audio Coding 3
Расширение режима : CM (complete main)
Параметр Endianness формата : Big
Идентификатор кодека : A_AC3
Продолжительность : 1 ч. 29 м.
Вид битрейта : Постоянный
Битрейт : 192 Кбит/сек
Каналы : 1 канал
Расположение каналов : Front: C
Частота : 48,0 КГц
Метод сжатия : С потерями
Задержка видео : 2 с. 367 мс.
Размер потока : 123 Мбайт (7%)
Язык : Russian
Default : Нет
Forced : Нет

Релиз от:
Автор релиза:



   Похожие торренты   Торрент   Размер 
В этой теме нет новых непрочитанных сообщений. Без свидетелей (1983) DVDRip от KinoZalSat

329 | 15

1.37 ГБ

В этой теме нет новых непрочитанных сообщений. Без свидетелей [S02] (2015) WEB-DLRip от ExKinoRay

199 | 176

16.8 ГБ

В этой теме нет новых непрочитанных сообщений. Без свидетелей [02x01-35 из 45] (2015) WEB-DLRip от ExKinoRay

1 | 22

13.09 ГБ

В этой теме нет новых непрочитанных сообщений. Подросток (1983) DVDRip-AVC от ExKinoRay

16 | 5

7.03 ГБ

В этой теме нет новых непрочитанных сообщений. Торпедоносцы (1983) DVDRip-AVC от ExKinoRay

50 | 2

1.8 ГБ

В этой теме нет новых непрочитанных сообщений. Демидовы [01-02 из 02] (1983) DVDRip-AVC от ExKinoRay

267 | 20

2.67 ГБ

В этой теме нет новых непрочитанных сообщений. Петля [1-3 из 3] (1983) DVDRip от ExKinoRay

31 | 8

2.05 ГБ




Вы не можете начинать темы
Вы не можете отвечать на сообщения
Вы не можете редактировать свои сообщения
Вы не можете удалять свои сообщения
Вы не можете добавлять вложения

Перейти:  
Для Мосгорсуда, Роскомнадзора и рекламодателей: mosgorsud-torrent[собачка]yandex.ru
 Вход
ppkBB3cker v.2 © 2008-2014 @ PPK
[ Time : 4.013s | 16 Queries | GZIP : Off ]

Торрент трекер RUTOR.IN, Не можете зайти на rutor.org? Какой новый адрес рутор? Какое зеркало рутор? Не работает rutor.org и зеркала? Тогда наш торрент специально для вас. Rutor.in неофициальное зеркало rutor. В случае если у Вас заблокирован rutor или вдруг Вы не можете на него зайти, то Вы без труда сможете скачать бесплатно и без рекламы последние новинки кино, игр, сериалов и прочего у нас, на Rutor.in. Не нужно использовать прокси, чтобы зайти на рутор, достаточно воспользоваться нашим ресурсом. Все новые фильмы, игры, сериалы, книги и музыка за 2013 и 2014 годы через торрент бесплатно. Скачивайте фильмы в хорошем качестве, игры для пк, xbox, playstation без регистрации. У нас вы найдете новые Зарубежные сериалы и Русские сериалы 2013, 2014, 2015 годов. Оставайтесь с нами, качайте любимые фильмы, игры, сериалы, книги и музыку.