img image001 image001 image001 image001 image001 image001 image001 image001 image001 image001 image001 image001 image001 image001 image001

Planets Sun Sun Sun
Статистика раздачи
Автор: Nickolas3434 | Размер: 5.46 ГБ | Добавлен: 09 ноя 2015
Раздают: 3    Качают: 6
Скачать торрент
Скачать торрент
Описание торрента

СообщениеДобавлено: 09 ноя 2015 




Русское название: Хроники измены
Год выпуска: 2010
Жанр: Драма, Мелодрама
Режиссер: Сергей Крутин
Актеры: Любовь Толкалина, Вячеслав Манучаров, Дмитрий Лаленков, Дмитрий Суржиков
Описание фильма:
В центре сюжета — классический любовный треугольник: супруги Андрей и Анна и ухажер Анны Егор. В результате драматических перипетий, происходящих с героями, один из них погибает…

Производство: Россия, кинокомпания " PYRAMID"
Продолжительность: 01:50:06
Дополнительно: Анонсы
Субтитры: Отсутствуют
Видеокодек: MPEG-2
Битрейт видео: ~5 992 Kbps
Размер кадра: PAL 16:9 (720x576)
Качество видео: DVD9
Аудиокодек: AC3 2.0
Битрейт аудио: ~224 Kbps


Title: Хроники Измены DVD9 (2010)
Size: 5.47 Gb ( 5 733 462,00 KBytes ) - DVD-9
Enabled regions: 1, 2, 3, 4, 5, 6, 7, 8
VTS_01 :
Play Length: 00:00:15
Video: PAL 4:3 (720x576) VBR
Audio:
Not specified (Dolby AC3, 2 ch)
VTS_02 :
Play Length: 00:00:08
Video: PAL 16:9 (720x576) VBR, Auto Letterboxed
Audio:
Not specified (Dolby AC3, 2 ch)
VTS_03 :
Play Length: 01:50:06
Video: PAL 16:9 (720x576) VBR, Auto Letterboxed
Audio:
Russian (Dolby AC3, 2 ch)
VTS_04 :
Play Length: 00:01:47
Video: PAL 16:9 (720x576) VBR, Auto Letterboxed
Audio:
Not specified (Dolby AC3, 2 ch)
VTS_05 :
Play Length: 00:01:12
Video: PAL 16:9 (720x576) VBR, Auto Letterboxed
Audio:
Not specified (LinearPCM, 2 ch)
VTS_06 :
Play Length: 00:01:30
Video: PAL 16:9 (720x576) VBR, Auto Letterboxed
Audio:
Not specified (Dolby AC3, 2 ch)
VTS_07 :
Play Length: 00:02:34
Video: PAL 16:9 (720x576) VBR, Auto Letterboxed
Audio:
Not specified (Dolby AC3, 2 ch)
VTS_08 :
Play Length: 00:02:03
Video: PAL 16:9 (720x576) VBR, Auto Letterboxed
Audio:
Not specified (Dolby AC3, 2 ch)
VTS_09 :
Play Length: 00:01:46
Video: PAL 16:9 (720x576) VBR, Auto Letterboxed
Audio:
Not specified (Dolby AC3, 2 ch)
VTS_10 :
Play Length: 00:02:04
Video: PAL 16:9 (720x576) VBR, Auto Letterboxed
Audio:
Not specified (Dolby AC3, 2 ch)
General
Complete name : Хроники Измены DVD9 (2010)VIDEO_TSVTS_03_1.VOB
Format : MPEG-PS
File size : 1 024 MiB
Duration : 22mn 34s
Overall bit rate : 6 342 Kbps
Video
ID : 224 (0xE0)
Format : MPEG Video
Format version : Version 2
Format profile : Main@Main
Format settings, BVOP : Yes
Format settings, Matrix : Default
Format settings, GOP : M=3, N=12
Duration : 22mn 34s
Bit rate mode : Variable
Bit rate : 5 992 Kbps
Nominal bit rate : 7 500 Kbps
Width : 720 pixels
Height : 576 pixels
Display aspect ratio : 16:9
Frame rate : 25.000 fps
Standard : PAL
Color space : YUV
Chroma subsampling : 4:2:0
Bit depth : 8 bits
Scan type : Progressive
Compression mode : Lossy
Bits/(Pixel*Frame) : 0.578
Stream size : 967 MiB (94%)
Audio
ID : 128 (0x80)
Format : AC-3
Format/Info : Audio Coding 3
Mode extension : CM (complete main)
Duration : 22mn 34s
Bit rate mode : Constant
Bit rate : 224 Kbps
Channel(s) : 2 channels
Channel positions : Front: L R
Sampling rate : 48.0 KHz
Bit depth : 16 bits
Compression mode : Lossy
Stream size : 36.2 MiB (4%)
Menu







   Похожие торренты   Торрент   Размер 
В этой теме нет новых непрочитанных сообщений. Хроники измены (2010) DVDRip-AVC

98 | 10

751.81 МБ

В этой теме нет новых непрочитанных сообщений. Хроники измены (2010) DVDRip

2 | 2

700.19 МБ

В этой теме нет новых непрочитанных сообщений. Хроники измены (2010) DVDRip

165 | 4

1.37 ГБ

В этой теме нет новых непрочитанных сообщений. Хроники измены (2010) DVDRip-AVC от potroks

21 | 3

1.37 ГБ

В этой теме нет новых непрочитанных сообщений. Хроники Нарнии: Покоритель Зари / The Chronicles of Narnia: The Voyage of the Dawn Treader (2010) DVD9

0 | 3

5.59 ГБ

В этой теме нет новых непрочитанных сообщений. Огонь и лед: Хроники драконов / Fire & Ice (2008) DVD9 от Bumblebee

2 | 3

5.03 ГБ

В этой теме нет новых непрочитанных сообщений. Хроники Риддика / The Chronicles of Riddick (2004) DVD9 от New-Team | P2 | Tycoon

0 | 2

7.56 ГБ




Вы не можете начинать темы
Вы не можете отвечать на сообщения
Вы не можете редактировать свои сообщения
Вы не можете удалять свои сообщения
Вы не можете добавлять вложения

Перейти:  
Для Мосгорсуда, Роскомнадзора и рекламодателей: mosgorsud-torrent[собачка]yandex.ru
 Вход
ppkBB3cker v.2 © 2008-2014 @ PPK
[ Time : 0.026s | 17 Queries | GZIP : Off ]

cron