img image001 image001 image001 image001 image001 image001 image001 image001 image001 image001 image001 image001 image001 image001 image001

Planets Sun Sun Sun
Статистика раздачи
Автор: Nickolas3434 | Размер: 749.82 МБ | Добавлен: 09 ноя 2015
Раздают: 170    Качают: 18
Скачать торрент
Скачать торрент
Описание торрента

СообщениеДобавлено: 09 ноя 2015 


Информация о фильме
Название: Ласковый май
Год выхода: 2009
Жанр: Драма, музыкальный, биография
Режиссёр: Владимир Виноградов
В ролях: Вячеслав Манучаров, Сергей Романович, Дмитрий Блохин, Виктор Вержбицкий, Людмила Зайцева, Раиса Конюхова, Максим Костромыкин, Максим Литовченко, Виктория Матвеева, Инга Оболдина, Марина Орел, Раиса Рязанова, Пётр Скворцов, Владимир Стеклов, Екатерина Федулова, Данила Чванов, Иван Агапов, Екатерина Садовская, Ольга Турутина, Александр Фисенко, Александр Нехороших, Виктор Бунаков
О фильме: В 1985 году в Советском Союзе началась перестройка и появилась группа "Ласковый май". На их концертах были только аншлаги, от неразделённой любви к ним совершались самоубийства. Фигура Михаила Горбачёва меркла в лучах славы создателя "Ласкового мая" - Андрея Разина. Случайно сделанная фотография на пляже, где Андрей Разин, будучи ребенком, запечатлён с семьей Горбачёвых, перевернула его судьбу. Именно с помощью этой фотографии он стал племянником Горбачёва. Он заявил об этом не напрямую - так, намекнул, и ему мгновенно поверили. Функционеры всех рангов действовали без промедления: перед ним распахнулись двери телевидения и радио, советская эстрада легла к его ногам. Разин ездил по всем детским домам Советского Союза в поисках одарённых детей для своих групп-двойников. "Ласковый май" гастролировал одновременно в нескольких городах, давая в день по 5-6 концертов. За все десять лет существования группы не было ни одного не проданного или сданного билета, каждый пятый житель СССР побывал на их концертах. Прошло время, ушёл Горбачёв, развалился Советский Союз, закончилась эпоха "Ласкового мая", но до сих пор, под современные аранжировки их песен, зажигают на дискотеках современные тинэйджеры...

Страна: Россия
Студия: DixiMedia
Продолжительность: 01:54:48
Перевод: Не требуется (оригинальный)
Файл
Формат: avi
Качество: BDRip (Blu-ray)
Видео: XviD, 656х368, 24fps, 777kbps
Аудио: MPEG Layer 3, 2ch, 48000Hz, 128kbps

General
Complete name : Laskovyi.Mai.2009.O.BDRip.700.CurHaJI.avi
Format : AVI
Format/Info : Audio Video Interleave
File size : 750 MiB
Duration : 1h 54mn
Overall bit rate : 913 Kbps
Movie name : Laskovyi.Mai.2009.O.BDRip.700.CurHaJI
Writing application : Lavf53.13.0
Writing library : VirtualDub build 35491/release
Video
ID : 0
Format : MPEG-4 Visual
Format profile : Advanced Simple@L5
Format settings, BVOP : 2
Format settings, QPel : No
Format settings, GMC : No warppoints
Format settings, Matrix : Custom
Codec ID : XVID
Codec ID/Hint : XviD
Duration : 1h 54mn
Bit rate : 777 Kbps
Width : 656 pixels
Height : 368 pixels
Display aspect ratio : 16:9
Frame rate : 24.000 fps
Color space : YUV
Chroma subsampling : 4:2:0
Bit depth : 8 bits
Scan type : Progressive
Compression mode : Lossy
Bits/(Pixel*Frame) : 0.134
Stream size : 637 MiB (85%)
Writing library : XviD 64
Audio
ID : 1
Format : MPEG Audio
Format version : Version 1
Format profile : Layer 3
Codec ID : 55
Codec ID/Hint : MP3
Duration : 1h 54mn
Bit rate mode : Constant
Bit rate : 128 Kbps
Channel(s) : 2 channels
Sampling rate : 48.0 KHz
Compression mode : Lossy
Stream size : 105 MiB (14%)
Alignment : Split accross interleaves
Interleave, duration : 42 ms (1.00 video frame)
Interleave, preload duration : 500 ms
Writing library : L3.99r
Encoding settings : -m s -V 4 -q 2 -lowpass 17 -b 128


Релиз от:



   Похожие торренты   Торрент   Размер 
В этой теме нет новых непрочитанных сообщений. Ласковый май (2009) BDRip | Лицензия

191 | 51

1.45 ГБ

В этой теме нет новых непрочитанных сообщений. Ласковый май (2009) BDRip 720p от ivandubskoj | Лицензия

192 | 26

4.37 ГБ

В этой теме нет новых непрочитанных сообщений. Ласковый май (2009) Blu-ray Remux (1080p) от ivandubskoj | Лицензия

43 | 15

17.15 ГБ

В этой теме нет новых непрочитанных сообщений. Ласковый май (2009) BDRip от HELLYWOOD

10 | 4

2.12 ГБ

В этой теме нет новых непрочитанных сообщений. Ласковый май (2009) BDRip 1080p

21 | 12

4.37 ГБ

В этой теме нет новых непрочитанных сообщений. Ласковый май (2009) BDRip от HQCLUB

3 | 5

2.18 ГБ

В этой теме нет новых непрочитанных сообщений. Ласковый май (2009) BDRip от HQ-VIDEO

9 | 8

2.18 ГБ




Вы не можете начинать темы
Вы не можете отвечать на сообщения
Вы не можете редактировать свои сообщения
Вы не можете удалять свои сообщения
Вы не можете добавлять вложения

Перейти:  
Для Мосгорсуда, Роскомнадзора и рекламодателей: mosgorsud-torrent[собачка]yandex.ru
 Вход
ppkBB3cker v.2 © 2008-2014 @ PPK
[ Time : 0.262s | 14 Queries | GZIP : Off ]

Торрент трекер RUTOR.IN, Не можете зайти на rutor.org? Какой новый адрес рутор? Какое зеркало рутор? Не работает rutor.org и зеркала? Тогда наш торрент специально для вас. Rutor.in неофициальное зеркало rutor. В случае если у Вас заблокирован rutor или вдруг Вы не можете на него зайти, то Вы без труда сможете скачать бесплатно и без рекламы последние новинки кино, игр, сериалов и прочего у нас, на Rutor.in. Не нужно использовать прокси, чтобы зайти на рутор, достаточно воспользоваться нашим ресурсом. Все новые фильмы, игры, сериалы, книги и музыка за 2013 и 2014 годы через торрент бесплатно. Скачивайте фильмы в хорошем качестве, игры для пк, xbox, playstation без регистрации. У нас вы найдете новые Зарубежные сериалы и Русские сериалы 2013, 2014, 2015 годов. Оставайтесь с нами, качайте любимые фильмы, игры, сериалы, книги и музыку.