img image001 image001 image001 image001 image001 image001 image001 image001 image001 image001 image001 image001 image001 image001 image001

Planets Sun Sun Sun
Статистика раздачи
Автор: Nickolas3434 | Размер: 3.04 ГБ | Добавлен: 09 ноя 2015
Раздают: 3    Качают: 2
Скачать торрент
Скачать торрент
Описание торрента

СообщениеДобавлено: 09 ноя 2015 


Информация о фильме
Название: Первые испытания
Год выхода: 1960-1961
Жанр: кинороман, экранизация
Режиссер: Владимир Корш-Саблин
В ролях: Эдуард Изотов, Наталья Кустинская, Елена Корнилова, Иван Шатило, Юрий Дедович, Игорь Сретенский, Николай Ерёменко старший, Александр Кистов, Глеб Глебов, Виктор Тарасов, Александр Ильинский, Михаил Названов, Анатолий Кацинский, Павел Молчанов, Геннадий Мичурин, Фёдор Шмаков, Владимир Балашов, Владимир Соловьёв, Степан Бирилло, Геннадий Некрасов, Борис Кудрявцев, Анна Заржицкая, Кузьма Кулаков, Борис Владомирский, Татьяна Барышева, Евгений Карнаухов, Владимир Кудревич, Владимир Дедюшко, Стефания Станюта, Василий Кравцов, Виталий Полицеймако, Сергей Карнович-Валуа, Константин Адашевский, Василий Максимов, Галина Рогачева, Гена Лапченко
О фильме:
Историко-революционный кинороман по мотивам трилогии «На росстанях» Якуба Коласа.
Действие фильма начинается во время революции 1905 года. Молодой учитель Андрей Лобанович приезжает работать в белорусское село Тельшино. Выполняя обещание, данное другу, погибшему от руки царского сыщика, Лобанович вступает в фиктивный брак с революционеркой Ольгой Андросовой. Дочь лесничего Ядвися, которую любит Андрей, соглашается ждать его развода, но просит, чтобы Ольга никогда не появлялась в селе. Однако, по поручению подпольного комитета Ольга приезжает в Тельшино, чтобы передать Лобановичу документы, подтверждающие права крестьян на землю, отнятую помещиком. Ядвися узнаёт о приезде Ольги и, оскорблённая, соглашается выйти замуж за другого. Андрей передаёт крестьянам документы, уговорив их не действовать силой, а идти к помещику с петицией. Тот вызывает из города казаков и безжалостно расправляется с крестьянами. Крестьяне поднимают восстание...
Запись потока *.ts с наземного цифрового телеканала "Беларусь 3", ремукс в *.mkv программой VideoReDo.


Страна: СССР
Студия: Беларусьфильм
Количество серий: 2
Продолжительность: 01:28:11 + 01:25:21
Файл
Кодек: AVC (H264)
Качество: DVB
Видео: MPEG4 Video (H264) 720x576 (49:36) 25fps, 2 205 Kbps
Звук: MPEG Audio 48000Hz stereo 256kbps
Семпл
Код:
General
Unique ID                      : 314401259536276484112035467762674575348 (0xEC877AE334E49DA975895270397227F4)
Complete name                  : D:Новая  земля 2Художественные фильмыПервые испытания (1960-1961)Первые испытания (1960-1961)Первые испытания 01 (1960).mkv
Format                         : Matroska
Format version                 : Version 2
File size                      : 1.55 GiB
Duration                       : 1h 28mn
Overall bit rate               : 2 509 Kbps
Writing application            : Lavf52.64.2
Writing library                : Lavf52.64.2
Video
ID                             : 1
Format                         : AVC
Format/Info                    : Advanced Video Codec
Format profile                 : Main@L3.0
Format settings, CABAC         : Yes
Format settings, ReFrames      : 4 frames
Format settings, GOP           : M=4, N=24
Codec ID                       : V_MPEG4/ISO/AVC
Duration                       : 1h 28mn
Bit rate                       : 2 203 Kbps
Width                          : 720 pixels
Height                         : 576 pixels
Display aspect ratio           : 4:3
Original display aspect ratio  : 4:3
Frame rate mode                : Constant
Frame rate                     : 25.000 fps
Standard                       : PAL
Color space                    : YUV
Chroma subsampling             : 4:2:0
Bit depth                      : 8 bits
Scan type                      : MBAFF
Scan order                     : Top Field First
Bits/(Pixel*Frame)             : 0.212
Stream size                    : 1.36 GiB (88%)
Default                        : Yes
Forced                         : No
Color primaries                : BT.601 PAL
Transfer characteristics       : BT.470 System B, BT.470 System G
Matrix coefficients            : BT.601
Color range                    : Limited
Audio
ID                             : 2
Format                         : MPEG Audio
Format version                 : Version 1
Format profile                 : Layer 2
Codec ID                       : A_MPEG/L2
Codec ID/Hint                  : MP2
Duration                       : 1h 28mn
Bit rate mode                  : Constant
Bit rate                       : 256 Kbps
Channel(s)                     : 2 channels
Sampling rate                  : 48.0 KHz
Compression mode               : Lossy
Stream size                    : 161 MiB (10%)
Language                       : English
Default                        : Yes
Forced                         : No


Код:
General
Unique ID                      : 142743387687513894469809844336001083320 (0x6B63606068640D41980E9EEA18A8E7B8)
Complete name                  : D:Новая  земля 2Художественные фильмыПервые испытания (1960-1961)Первые испытания (1960-1961)Первые испытания 02 (1961).mkv
Format                         : Matroska
Format version                 : Version 2
File size                      : 1.50 GiB
Duration                       : 1h 25mn
Overall bit rate               : 2 511 Kbps
Writing application            : Lavf52.64.2
Writing library                : Lavf52.64.2
Video
ID                             : 1
Format                         : AVC
Format/Info                    : Advanced Video Codec
Format profile                 : Main@L3.0
Format settings, CABAC         : Yes
Format settings, ReFrames      : 4 frames
Format settings, GOP           : M=4, N=24
Codec ID                       : V_MPEG4/ISO/AVC
Duration                       : 1h 25mn
Bit rate                       : 2 205 Kbps
Width                          : 720 pixels
Height                         : 576 pixels
Display aspect ratio           : 4:3
Original display aspect ratio  : 4:3
Frame rate mode                : Constant
Frame rate                     : 25.000 fps
Standard                       : PAL
Color space                    : YUV
Chroma subsampling             : 4:2:0
Bit depth                      : 8 bits
Scan type                      : MBAFF
Scan order                     : Top Field First
Bits/(Pixel*Frame)             : 0.213
Stream size                    : 1.31 GiB (88%)
Default                        : Yes
Forced                         : No
Color primaries                : BT.601 PAL
Transfer characteristics       : BT.470 System B, BT.470 System G
Matrix coefficients            : BT.601
Color range                    : Limited
Audio
ID                             : 2
Format                         : MPEG Audio
Format version                 : Version 1
Format profile                 : Layer 2
Codec ID                       : A_MPEG/L2
Codec ID/Hint                  : MP2
Duration                       : 1h 25mn
Bit rate mode                  : Constant
Bit rate                       : 256 Kbps
Channel(s)                     : 2 channels
Sampling rate                  : 48.0 KHz
Compression mode               : Lossy
Stream size                    : 156 MiB (10%)
Language                       : English
Default                        : Yes
Forced                         : No




   Похожие торренты   Торрент   Размер 
В этой теме нет новых непрочитанных сообщений. Александр Тиханович: первые 60 (Верасы) (2012) BD DVB от AND03AND

3 | 0

692.57 МБ

В этой теме нет новых непрочитанных сообщений. Тишина (1960) DVB от AND03AND

15 | 1

1.5 ГБ

В этой теме нет новых непрочитанных сообщений. Eric Dolphy - The Complete Prestige Recordings [1960-1961] (1995) MP3

1 | 1

1.52 ГБ

В этой теме нет новых непрочитанных сообщений. Перевал Великого Будды 1-3 / Daibosatsu toge I-III (1960-1961) DVDRip

2 | 4

4.43 ГБ

В этой теме нет новых непрочитанных сообщений. Eric Dolphy - The Complete Prestige Recordings [1960-1961] (1995) FLAC

4 | 0

4.2 ГБ

В этой теме нет новых непрочитанных сообщений. Маруся. Испытания [01-85] (2011) SATRip

4 | 28

48.56 ГБ

В этой теме нет новых непрочитанных сообщений. Полевые испытания / Gadget Trial (2006) PC

195 | 23

733.72 МБ




Вы не можете начинать темы
Вы не можете отвечать на сообщения
Вы не можете редактировать свои сообщения
Вы не можете удалять свои сообщения
Вы не можете добавлять вложения

Перейти:  
Для Мосгорсуда, Роскомнадзора и рекламодателей: mosgorsud-torrent[собачка]yandex.ru
 Вход
ppkBB3cker v.2 © 2008-2014 @ PPK
[ Time : 0.043s | 17 Queries | GZIP : Off ]

cron