img image001 image001 image001 image001 image001 image001 image001 image001 image001 image001 image001 image001 image001 image001 image001

Planets Sun Sun Sun
Статистика раздачи
Автор: Nickolas3434 | Размер: 4.57 ГБ | Добавлен: 11 ноя 2015
Раздают: 514    Качают: 99
Скачать торрент
Скачать торрент
Описание торрента

СообщениеДобавлено: 11 ноя 2015 


Информация о фильме
Название: Большая перемена
Год выхода: 1973
Жанр: Лирическая комедия
Режиссер: Алексей Коренев
В ролях: Михаил Кононов, Евгений Леонов, Ролан Быков, Александр Збруев, Светлана Крючкова, Юрий Кузьменков, Наталия Богунова, Савелий Крамаров, Наталья Гвоздикова, Виктор Проскурин, Валерий Носик, Нина Маслова, Людмила Касаткина, Валентина Талызина, Анастасия Георгиевская, Валерий Хлевинский, Ирен Азер, Инна Жилина, Людмила Анциферова, Валентина Кузнецова, Михаил Яншин, Валентина Сперантова, Люсьена Овчинникова, Лев Дуров
О фильме: Блистательная комедия, сделавшая звездами многих из участников картины. Молодой подающий надежды аспирант-историк, провалив экзамены и поссорившись со своей невестой, бросает науку и идет работать в вечернюю школу. Его ученики - взрослые люди, отягощенные проблемами, семейными отношениями, недоразумениями и... школьными уроками. Нестор Петрович начинает жить заботами своих учеников, что приводит к большим переменам в судьбах всех героев...
Страна: СССР, Мосфильм
Продолжительность: 4 х ~ 01:03:00
Перевод: не требуется
Файл
Кодек: x264
Качество: DVDRip-AVC
Видео: MPEG-4 AVC, ~ 1800 Кбит/с, 720x574@768x574
Звук: AC3, 6 ch, 448 Кбит/с, AC3, 1 ch, 224 Кбит/с

raw [info]: 720x574p 16:15 @ 25/1 fps (cfr)
x264 [info]: using SAR=16/15
x264 [info]: using cpu capabilities: MMX2 SSE2Fast SSSE3 SSE4.2 AVX
x264 [info]: profile High, level 4.1
x264 [info]: frame I:500 Avg QP:17.48 size: 51675
x264 [info]: frame P:23376 Avg QP:19.64 size: 22194
x264 [info]: frame B:70890 Avg QP:22.08 size: 5402
===========================================================================================================
Общее
Уникальный идентификатор : 208793307439919072065778870074315867545 (0x9D1420D82DA4E37B8E217DDC662B8599)
Полное имя : R:МОИ РИПЫБольшая перемена_1973-DVDRip-AVCПеремена-1.mkv
Формат : Matroska
Версия формата : Version 2
Размер файла : 1,16 Гбайт
Продолжительность : 1 ч. 3 м.
Общий поток : 2632 Кбит/сек
Дата кодирования : UTC 2015-11-09 06:58:07
Программа кодирования : mkvmerge v5.8.0 ('No Sleep / Pillow') built on Sep 2 2012 15:37:04
Библиотека кодирования : libebml v1.2.3 + libmatroska v1.3.0
Видео
Идентификатор : 1
Формат : AVC
Формат/Информация : Advanced Video Codec
Профиль формата : High@L4.1
Параметр CABAC формата : Да
Параметр ReFrames формата : 15 кадров
Идентификатор кодека : V_MPEG4/ISO/AVC
Битрейт : 1907 Кбит/сек
Ширина : 720 пикселей
Высота : 574 пикселя
Соотношение сторон : 4:3
Режим частоты кадров : Переменный
Частота кадров в оригинале : 25,000 кадров/сек
Цветовое пространство : YUV
Субдискретизация насыщенности : 4:2:0
Битовая глубина : 8 бит
Тип развёртки : Прогрессивная
Библиотека кодирования : x264 core 146 r2538 121396c
Настройки программы : cabac=1 / ref=15 / deblock=1:-2:-2 / analyse=0x3:0x133 / me=umh / subme=10 / psy=1 / psy_rd=1.05:0.07 / mixed_ref=1 / me_range=32 / chroma_me=1 / trellis=2 / 8x8dct=1 / cqm=0 / deadzone=21,11 / fast_pskip=0 / chroma_qp_offset=-3 / threads=12 / lookahead_threads=3 / sliced_threads=0 / nr=0 / decimate=0 / interlaced=0 / bluray_compat=0 / constrained_intra=0 / bframes=10 / b_pyramid=2 / b_adapt=2 / b_bias=0 / direct=1 / weightb=1 / open_gop=0 / weightp=2 / keyint=250 / keyint_min=25 / scenecut=40 / intra_refresh=0 / rc=crf / mbtree=0 / crf=18.0 / qcomp=0.63 / qpmin=0 / qpmax=39 / qpstep=4 / ip_ratio=1.40 / pb_ratio=1.30 / aq=1:1.00
Язык : English
Default : Да
Forced : Нет
Основные цвета : BT.601 PAL
Характеристики трансфера : BT.470 System B, BT.470 System G
Коэффициенты матрицы : BT.601
Аудио #1
Идентификатор : 2
Формат : AC-3
Формат/Информация : Audio Coding 3
Расширение режима : CM (complete main)
Параметр Endianness формата : Big
Идентификатор кодека : A_AC3
Продолжительность : 1 ч. 3 м.
Вид битрейта : Постоянный
Битрейт : 448 Кбит/сек
Каналы : 6 каналов
Расположение каналов : Front: L C R, Side: L R, LFE
Частота : 48,0 КГц
Битовая глубина : 16 бит
Метод сжатия : С потерями
Задержка видео : 275 мс.
Размер потока : 202 Мбайт (17%)
Язык : Russian
Default : Да
Forced : Нет
Аудио #2
Идентификатор : 3
Формат : AC-3
Формат/Информация : Audio Coding 3
Расширение режима : CM (complete main)
Параметр Endianness формата : Big
Идентификатор кодека : A_AC3
Продолжительность : 1 ч. 3 м.
Вид битрейта : Постоянный
Битрейт : 224 Кбит/сек
Каналы : 1 канал
Расположение каналов : Front: C
Частота : 48,0 КГц
Битовая глубина : 16 бит
Метод сжатия : С потерями
Задержка видео : 275 мс.
Размер потока : 101 Мбайт (9%)
Язык : Russian
Default : Нет
Forced : Нет

Релиз от:
Автор релиза:



   Похожие торренты   Торрент   Размер 
В этой теме нет новых непрочитанных сообщений. Большая перемена (1973) DVDRip от PlanetaUA

645 | 75

4.26 ГБ

В этой теме нет новых непрочитанных сообщений. Большая перемена (1972-1973) 2xDVD9

17 | 10

15.13 ГБ

В этой теме нет новых непрочитанных сообщений. Перемена личности / True Identity (1991) DVDRip

59 | 25

1.45 ГБ

В этой теме нет новых непрочитанных сообщений. Кортик (1973) DVDRip-AVC от ExKinoRay

289 | 29

4.11 ГБ

В этой теме нет новых непрочитанных сообщений. Мачеха (1973) DVDRip-AVC от ExKinoRay

406 | 21

1.73 ГБ

В этой теме нет новых непрочитанных сообщений. Щелкунчик (1973) DVDRip от ExKinoRay

444 | 30

457.73 МБ

В этой теме нет новых непрочитанных сообщений. Нейлон 100% (1973) DVDRip-AVC от ExKinoRay

202 | 7

1.64 ГБ




Вы не можете начинать темы
Вы не можете отвечать на сообщения
Вы не можете редактировать свои сообщения
Вы не можете удалять свои сообщения
Вы не можете добавлять вложения

Перейти:  
Для Мосгорсуда, Роскомнадзора и рекламодателей: mosgorsud-torrent[собачка]yandex.ru
 Вход
ppkBB3cker v.2 © 2008-2014 @ PPK
[ Time : 0.088s | 14 Queries | GZIP : Off ]
CGP output time : 0.248s | 5 Queries | GZIP : Off

Торрент трекер RUTOR.IN, Не можете зайти на rutor.org? Какой новый адрес рутор? Какое зеркало рутор? Не работает rutor.org и зеркала? Тогда наш торрент специально для вас. Rutor.in неофициальное зеркало rutor. В случае если у Вас заблокирован rutor или вдруг Вы не можете на него зайти, то Вы без труда сможете скачать бесплатно и без рекламы последние новинки кино, игр, сериалов и прочего у нас, на Rutor.in. Не нужно использовать прокси, чтобы зайти на рутор, достаточно воспользоваться нашим ресурсом. Все новые фильмы, игры, сериалы, книги и музыка за 2013 и 2014 годы через торрент бесплатно. Скачивайте фильмы в хорошем качестве, игры для пк, xbox, playstation без регистрации. У нас вы найдете новые Зарубежные сериалы и Русские сериалы 2013, 2014, 2015 годов. Оставайтесь с нами, качайте любимые фильмы, игры, сериалы, книги и музыку.