img image001 image001 image001 image001 image001 image001 image001 image001 image001 image001 image001 image001 image001 image001 image001

Planets Sun Sun Sun
Статистика раздачи
Автор: Nickolas3434 | Размер: 745.67 МБ | Добавлен: 11 ноя 2015
Раздают: 816    Качают: 79
Скачать торрент
Скачать торрент
Описание торрента

СообщениеДобавлено: 11 ноя 2015 


Информация о фильме
Название: Шёпот
Год выхода: 2015
Жанр: Мелодрама
Режиссер: Глеб Якубовский
В ролях: Ольга Иванова, Алексей Демидов, Святослав Астрамович, Марина Денисова, Елизавета Шукова, Ирина Нарбекова, Вера Кавалерова, Дмитрий Гурбанович, Олег Ткачёв, Светлана Кожемякина, Алла Долгая
О фильме:
Стася Рокотова молода, привлекательна, учится в аспирантуре и собирается замуж. Но несмотря на все это, она чувствует себя очень одинокой. С женихом Игорем на первый взгляд все складывается нормально, но Стасю не покидает ощущение, что он ее не слышит или не хочет слышать. Мать вспоминает о своей младшей дочери, только когда ей что-то нужно. А со старшей сестрой Ликой, занимающейся живописью, они близки никогда не были. Всё это угнетает девушку, и она все больше задумывается о том, чтобы что-то изменить в своей жизни.

Страна: Россия
Студия: Паламеда продакшн, Продюсерский центр Фабула
Продолжительность: 01:32:12
Перевод: Не требуется
Файл
Кодек: XviD
Качество: HDTVRip
Видео: 624x352 (1.77:1), 25 fps, XviD build 73 ~992 kbps avg, 0.18 bit/pixel
Звук: 48 kHz, MPEG Layer 3, 2 ch, ~128.00 kbps avg
Субтитры: Отсутствует
Семпл
General
Complete name : D:ТоррентыРИП ОТ ШКИПЕРШёпотShepot.2015.HDTVRip.shkiper.avi
Format : AVI
Format/Info : Audio Video Interleave
File size : 746 MiB
Duration : 1h 32mn
Overall bit rate : 1 131 Kbps
Writing application : VirtualDubMod 1.5.10.3 | www.virtualdub-fr.org || (build 2550/release)
Writing library : VirtualDubMod build 2550/release
Video
ID : 0
Format : MPEG-4 Visual
Format profile : Advanced Simple@L5
Format settings, BVOP : 1
Format settings, QPel : No
Format settings, GMC : No warppoints
Format settings, Matrix : Custom
Codec ID : XVID
Codec ID/Hint : XviD
Duration : 1h 32mn
Bit rate : 993 Kbps
Width : 624 pixels
Height : 352 pixels
Display aspect ratio : 16:9
Frame rate : 25.000 fps
Color space : YUV
Chroma subsampling : 4:2:0
Bit depth : 8 bits
Scan type : Progressive
Compression mode : Lossy
Bits/(Pixel*Frame) : 0.181
Stream size : 655 MiB (88%)
Writing library : XviD 73
Audio
ID : 1
Format : MPEG Audio
Format version : Version 1
Format profile : Layer 3
Mode : Joint stereo
Mode extension : MS Stereo
Codec ID : 55
Codec ID/Hint : MP3
Duration : 1h 32mn
Bit rate mode : Constant
Bit rate : 128 Kbps
Channel(s) : 2 channels
Sampling rate : 48.0 KHz
Compression mode : Lossy
Stream size : 84.4 MiB (11%)
Alignment : Aligned on interleaves
Interleave, duration : 40 ms (1.00 video frame)
Interleave, preload duration : 504 ms
Writing library : LAME3.99r
Encoding settings : -m j -V 4 -q 2 -lowpass 17 -b 128

Релиз от:



   Похожие торренты   Торрент   Размер 
В этой теме нет новых непрочитанных сообщений. Шёпот (2015) HDTVRip-AVC от Files-x

198 | 41

1.37 ГБ

В этой теме нет новых непрочитанных сообщений. Шёпот (2015) HDTVRip от MediaClub | КПК

429 | 16

419.44 МБ

В этой теме нет новых непрочитанных сообщений. Шёпот (2015) HDTVRip от Files-x

1765 | 222

1.37 ГБ

В этой теме нет новых непрочитанных сообщений. Шёпот (2015) HDTVRip 720p от MediaClub

406 | 43

2.43 ГБ

В этой теме нет новых непрочитанных сообщений. Шёпот / The Whispers [01х01-07 из 14] (2015) HDTVRip | Kerob

8 | 62

2.94 ГБ

В этой теме нет новых непрочитанных сообщений. Шёпот / The Whispers [01х01 из 14] (2015) HDTVRip | BaibaKo

492 | 30

570.59 МБ

В этой теме нет новых непрочитанных сообщений. Шёпот / The Whispers [01х01-08 из 14] (2015) HDTVRip | Kerob

12 | 182

3.32 ГБ




Вы не можете начинать темы
Вы не можете отвечать на сообщения
Вы не можете редактировать свои сообщения
Вы не можете удалять свои сообщения
Вы не можете добавлять вложения

Перейти:  
Для Мосгорсуда, Роскомнадзора и рекламодателей: mosgorsud-torrent[собачка]yandex.ru
 Вход
ppkBB3cker v.2 © 2008-2014 @ PPK
[ Time : 0.080s | 15 Queries | GZIP : Off ]

Торрент трекер RUTOR.IN, Не можете зайти на rutor.org? Какой новый адрес рутор? Какое зеркало рутор? Не работает rutor.org и зеркала? Тогда наш торрент специально для вас. Rutor.in неофициальное зеркало rutor. В случае если у Вас заблокирован rutor или вдруг Вы не можете на него зайти, то Вы без труда сможете скачать бесплатно и без рекламы последние новинки кино, игр, сериалов и прочего у нас, на Rutor.in. Не нужно использовать прокси, чтобы зайти на рутор, достаточно воспользоваться нашим ресурсом. Все новые фильмы, игры, сериалы, книги и музыка за 2013 и 2014 годы через торрент бесплатно. Скачивайте фильмы в хорошем качестве, игры для пк, xbox, playstation без регистрации. У нас вы найдете новые Зарубежные сериалы и Русские сериалы 2013, 2014, 2015 годов. Оставайтесь с нами, качайте любимые фильмы, игры, сериалы, книги и музыку.