img image001 image001 image001 image001 image001 image001 image001 image001 image001 image001 image001 image001 image001 image001 image001

Planets Sun Sun Sun
Статистика раздачи
Автор: Nickolas3434 | Размер: 6.52 ГБ | Добавлен: 11 ноя 2015
Раздают: 293    Качают: 121
Скачать торрент
Скачать торрент
Описание торрента

СообщениеДобавлено: 11 ноя 2015 


Информация о фильме
Оригинальное название: Три
Год выпуска: 2015
Жанр: Ужасы, триллер, драма
Выпущено: Россия, Германия
Режиссер: Павел Хвалеев
В ролях: Полина Давыдова, Евгений Гагарин, Любовь Игнатушко
О фильме: В маленький европейский городок, в котором живут сёстры Айя и Мирра, пришла неизвестная болезнь, которая унесла жизни многих горожан. После смерти мамы заболевает младшая Мирра. Понимая, что традиционная медицина бессильна перед болезнью сестры, Айя обращается за помощью к близкому другу семьи, приходскому священнику отцу Герману. В его доме Айя случайно находит книги далёкие от традиционной религии. Она узнаёт, что только проникнув в больное подсознание Мирры и отыскав истинную причину её болезни, она получит шанс на спасение сестры. Айя готова пройти страшный ритуал, погрузиться в недра подсознания и встретиться лицом к лицу с обитающими там демонами. Но сможет ли она справиться с собственным страхом, когда узнает все тайны прошлой жизни сестры?

Файл
Качество: BDRip (1080p)
Видео: MPEG-4 AVC, 8856 Кбит/с, 1920x816, 24 кадр/с
Аудио: Русский (AC3, 2 ch, 448 Кбит/с), (DTS, 2 ch, 1152 Кбит/с), немецкий (DTS, 6 ch, 1152 Кбит/с)
Размер: 6.52 ГБ
Продолжительность: 01:20:25
Язык: Русский
Субтитры: Английские
Сохранены оригинальные чаптеры как на Blu-Ray.
Озвучивание - Дублированное (Лицензия)
x264 [info]: frame I:628 Avg QP:14.02 size:193269
x264 [info]: frame P:22210 Avg QP:16.43 size: 83187
x264 [info]: frame B:92970 Avg QP:18.41 size: 36254
x264 [info]: consecutive B-frames: 1.1% 1.3% 5.5% 8.5% 15.9% 55.6% 6.7% 1.4% 1.6% 2.4%
x264 [info]: mb I I16..4: 21.0% 64.9% 14.1%
x264 [info]: mb P I16..4: 3.4% 19.7% 2.6% P16..4: 26.3% 28.9% 7.8% 2.8% 0.2% skip: 8.4%
x264 [info]: mb B I16..4: 1.1% 3.4% 0.6% B16..8: 36.5% 18.0% 2.8% direct: 8.6% skip:28.9% L0:44.9% L1:44.3% BI:10.8%
x264 [info]: 8x8 transform intra:71.9% inter:56.5%
x264 [info]: direct mvs spatial:96.4% temporal:3.6%
x264 [info]: coded y,uvDC,uvAC intra: 71.6% 55.5% 35.9% inter: 35.8% 18.3% 4.3%
x264 [info]: i16 v,h,dc,p: 73% 9% 7% 11%
x264 [info]: i8 v,h,dc,ddl,ddr,vr,hd,vl,hu: 10% 8% 20% 9% 10% 10% 10% 10% 11%
x264 [info]: i4 v,h,dc,ddl,ddr,vr,hd,vl,hu: 26% 12% 39% 3% 4% 4% 4% 3% 4%
x264 [info]: i8c dc,h,v,p: 39% 32% 21% 8%
x264 [info]: Weighted P-Frames: Y:10.2% UV:5.7%
x264 [info]: ref P L0: 46.6% 9.8% 24.5% 9.6% 8.5% 0.9% 0.1%
x264 [info]: ref B L0: 76.0% 17.6% 5.1% 1.4%
x264 [info]: ref B L1: 91.9% 8.1%
x264 [info]: kb/s:8852.45

Общее
Уникальный идентификатор : 235608122177965972868807770515898141319 (0xB14079489EA67A7499F0CE5CC7B48A87)
Полное имя : D:ЗагрузкиTri.2015.GER.Transfer..x264.BDRip.(1080p).ExKinoRay.mkv
Формат : Matroska
Версия формата : Version 2
Размер файла : 6,52 Гбайт
Продолжительность : 1 ч. 20 м.
Общий поток : 11,6 Мбит/сек
Название фильма : Три.2015.Rip by: ollan
Дата кодирования : UTC 2015-11-09 15:11:05
Программа кодирования : mkvmerge v5.6.0 ('Kenya Kane') built on May 27 2012 16:44:04
Библиотека кодирования : libebml v1.2.3 + libmatroska v1.3.0
Видео
Идентификатор : 1
Формат : AVC
Формат/Информация : Advanced Video Codec
Профиль формата : High@L4.1
Параметр CABAC формата : Да
Параметр ReFrames формата : 5 кадров
Идентификатор кодека : V_MPEG4/ISO/AVC
Продолжительность : 1 ч. 20 м.
Битрейт : 8856 Кбит/сек
Ширина : 1920 пикселей
Высота : 816 пикселей
Соотношение сторон : 2,35:1
Режим частоты кадров : Постоянный
Частота кадров : 24,000 кадра/сек
Цветовое пространство : YUV
Субдискретизация насыщенности : 4:2:0
Битовая глубина : 8 бит
Тип развёртки : Прогрессивная
Бит/(Пиксели*Кадры) : 0.236
Размер потока : 4,84 Гбайт (74%)
Библиотека кодирования : x264 core 125 r2200 999b753
Настройки программы : cabac=1 / ref=5 / deblock=1:-3:-3 / analyse=0x3:0x133 / me=umh / subme=11 / psy=1 / psy_rd=1.00:0.05 / mixed_ref=1 / me_range=48 / chroma_me=1 / trellis=2 / 8x8dct=1 / cqm=0 / deadzone=21,11 / fast_pskip=0 / chroma_qp_offset=-3 / threads=12 / lookahead_threads=2 / sliced_threads=0 / nr=0 / decimate=0 / interlaced=0 / bluray_compat=0 / constrained_intra=0 / bframes=9 / b_pyramid=2 / b_adapt=2 / b_bias=0 / direct=3 / weightb=1 / open_gop=0 / weightp=2 / keyint=240 / keyint_min=23 / scenecut=40 / intra_refresh=0 / rc=2pass / mbtree=0 / bitrate=8856 / ratetol=1.0 / qcomp=0.60 / qpmin=0 / qpmax=69 / qpstep=4 / cplxblur=20.0 / qblur=0.5 / ip_ratio=1.40 / pb_ratio=1.30 / aq=1:1.00
Язык : Russian
Default : Да
Forced : Нет
Аудио #1
Идентификатор : 2
Формат : AC-3
Формат/Информация : Audio Coding 3
Расширение режима : CM (complete main)
Параметр Endianness формата : Big
Идентификатор кодека : A_AC3
Продолжительность : 1 ч. 20 м.
Вид битрейта : Постоянный
Битрейт : 448 Кбит/сек
Каналы : 2 канала
Расположение каналов : Front: L R
Частота : 48,0 КГц
Битовая глубина : 16 бит
Метод сжатия : С потерями
Размер потока : 258 Мбайт (4%)
Язык : Russian
Default : Да
Forced : Нет
Аудио #2
Идентификатор : 3
Формат : DTS
Формат/Информация : Digital Theater Systems
Режим : 16
Параметр Endianness формата : Big
Идентификатор кодека : A_DTS
Продолжительность : 1 ч. 20 м.
Вид битрейта : Постоянный
Битрейт : 1152 Кбит/сек
Каналы : 2 канала
Расположение каналов : Front: L R
Частота : 48,0 КГц
Битовая глубина : 16 бит
Метод сжатия : С потерями
Размер потока : 663 Мбайт (10%)
Язык : Russian
Default : Нет
Forced : Нет
Аудио #3
Идентификатор : 4
Формат : DTS
Формат/Информация : Digital Theater Systems
Режим : 16
Параметр Endianness формата : Big
Идентификатор кодека : A_DTS
Продолжительность : 1 ч. 20 м.
Вид битрейта : Постоянный
Битрейт : 1152 Кбит/сек
Каналы : 6 каналов
Расположение каналов : Front: L C R, Side: L R, LFE
Частота : 48,0 КГц
Битовая глубина : 16 бит
Метод сжатия : С потерями
Размер потока : 663 Мбайт (10%)
Язык : German
Default : Нет
Forced : Нет
Текст
Идентификатор : 5
Формат : UTF-8
Идентификатор кодека : S_TEXT/UTF8
Идентификатор кодека/Информация : UTF-8 Plain Text
Заголовок : Full
Язык : English
Default : Нет
Forced : Нет
Меню
00:00:00.000 : ru:Chapter 01
00:05:22.958 : ru:Chapter 02
00:11:29.083 : ru:Chapter 03
00:19:20.208 : ru:Chapter 04
00:31:55.125 : ru:Chapter 05
00:40:51.958 : ru:Chapter 06
00:50:59.625 : ru:Chapter 07
01:01:12.750 : ru:Chapter 08





Релиз от: Rip by:



   Похожие торренты   Торрент   Размер 
В этой теме нет новых непрочитанных сообщений. Экстрасенсы / Solace (2015) BDRip 1080p от ExKinoRay | US-Transfer | Лицензия

159 | 26

9.99 ГБ

В этой теме нет новых непрочитанных сообщений. Месть от кутюр / The Dressmaker (2015) BDRip 1080p от ExKinoRay | RUS Transfer | Лицензия

238 | 29

7.82 ГБ

В этой теме нет новых непрочитанных сообщений. Экстрасенсы / Solace (2015) BDRemux 1080p от ExKinoRay | RUS-Transfer | Open Mate | Лицензия

39 | 23

16.38 ГБ

В этой теме нет новых непрочитанных сообщений. 12 лет рабства / 12 Years a Slave (2013) BDRip 1080p от ExKinoRay | US Transfer | D, А | Лицензия

156 | 111

16.69 ГБ

В этой теме нет новых непрочитанных сообщений. Афера по-американски / American Hustle (2013) BDRip 1080p от ExKinoRay | US Transfer | D | Лицензия

201 | 181

14.86 ГБ

В этой теме нет новых непрочитанных сообщений. Лекарь: Ученик Авиценны / The Physician (2013) BDRip 1080p от ExKinoRay | ESP Transfer | D | Лицензия

197 | 39

13.59 ГБ

В этой теме нет новых непрочитанных сообщений. Экстрасенсы / Solace (2015) BDRip от ExKinoRay | US-Transfer | Лицензия

592 | 110

1.46 ГБ




Вы не можете начинать темы
Вы не можете отвечать на сообщения
Вы не можете редактировать свои сообщения
Вы не можете удалять свои сообщения
Вы не можете добавлять вложения

Перейти:  
Для Мосгорсуда, Роскомнадзора и рекламодателей: mosgorsud-torrent[собачка]yandex.ru
 Вход
ppkBB3cker v.2 © 2008-2014 @ PPK
[ Time : 0.038s | 14 Queries | GZIP : Off ]

Торрент трекер RUTOR.IN, Не можете зайти на rutor.org? Какой новый адрес рутор? Какое зеркало рутор? Не работает rutor.org и зеркала? Тогда наш торрент специально для вас. Rutor.in неофициальное зеркало rutor. В случае если у Вас заблокирован rutor или вдруг Вы не можете на него зайти, то Вы без труда сможете скачать бесплатно и без рекламы последние новинки кино, игр, сериалов и прочего у нас, на Rutor.in. Не нужно использовать прокси, чтобы зайти на рутор, достаточно воспользоваться нашим ресурсом. Все новые фильмы, игры, сериалы, книги и музыка за 2013 и 2014 годы через торрент бесплатно. Скачивайте фильмы в хорошем качестве, игры для пк, xbox, playstation без регистрации. У нас вы найдете новые Зарубежные сериалы и Русские сериалы 2013, 2014, 2015 годов. Оставайтесь с нами, качайте любимые фильмы, игры, сериалы, книги и музыку.