img image001 image001 image001 image001 image001 image001 image001 image001 image001 image001 image001 image001 image001 image001 image001

Planets Sun Sun Sun
Статистика раздачи
Автор: Nickolas3434 | Размер: 2.26 ГБ | Добавлен: 11 ноя 2015, 07:33
Раздают: 137    Качают: 11
Скачать торрент
Скачать торрент
Описание торрента

СообщениеДобавлено: 11 ноя 2015, 07:33 


Информация о фильме
Название: Восток - Запад / Est - Ouest
Год выхода: 1999
Жанр: Драма
Режиссер: Режис Варнье / Regis Wargnier
В ролях: Сандрин Боннэр, Олег Меньшиков, Сергей Бодров-младший, Татьяна Догилева, Катрин Денев, Богдан Ступка, Рубен Тапьеро, Эруан Байно, Григорий Мануков, Меглена Караламбова, Атанас Атанассов, Таня Массалитинова, Валентин Ганев, Николай Бинев, Рене Фере, Даниэль Мартин, Юбер Сен Макари, Жорис Казанова, Жоэль Шапрон, Франсуа Карон, Мария Верди, Иван Савов, Александр Столярчук, Таня Люцканова, Малин Крастев, Иван Петров, Стефан Младенов, Евгения Ангелова, Мак Маринов, Виара Табакова, Дмитрий Николов, Алексей Вертинский, Олег Лисогор, Тамара Плашенко, Лариса Ступка
О фильме: Морем, на нарядном теплоходе, прибывает в СССР после Второй мировой войны семья русского эмигранта Алексея Головина. Успешный врач с женой-француженкой и сыном едет на родину, исполненный надежд. Среди многих других эмигрантов, покинувших Россию после революции, он возвращается не в страну победивших большевиков, а в страну, победившую фашизм. Привлеченные пропагандой, бывшие эмигранты готовы поверить, что репрессии 1930-х годов стали уже историей, и что после войны они смогут свободно жить на желанной родине. Но надежды рушатся сразу...
Страна: Россия, Франция, Испания, Украина, Болгария
Продолжительность: 01:59:47
Перевод: не требуется
Cубтитры: Вшитые на французскую речь
Файл
Кодек: x264
Качество: DVDRip-AVC
Видео: MPEG-4 AVC, 2250 Кбит/с, 714x410@761x410
Звук: AC3, 6 ch, 448 Кбит/с

raw [info]: 714x410p 16:15 @ 25/1 fps (cfr)
x264 [info]: using SAR=16/15
x264 [info]: using cpu capabilities: MMX2 SSE2Fast SSSE3 SSE4.2 AVX
x264 [info]: profile High, level 4.1
x264 [info]: frame I:1226 Avg QP:15.68 size: 63104
x264 [info]: frame P:43485 Avg QP:18.94 size: 22828
x264 [info]: frame B:134966 Avg QP:21.03 size: 7048
===========================================================================================================
Общее
Уникальный идентификатор : 190056474743838933938663782125637190332 (0x8EFB8BAB5A45B911B89D79281E63C2BC)
Полное имя : D:Восток-запад_1999-DVDRip-AVC.mkv
Формат : Matroska
Версия формата : Version 2
Размер файла : 2,26 Гбайт
Продолжительность : 1 ч. 59 м.
Общий поток : 2700 Кбит/сек
Дата кодирования : UTC 2015-11-10 10:05:20
Программа кодирования : mkvmerge v5.8.0 ('No Sleep / Pillow') built on Sep 2 2012 15:37:04
Библиотека кодирования : libebml v1.2.3 + libmatroska v1.3.0
Видео
Идентификатор : 1
Формат : AVC
Формат/Информация : Advanced Video Codec
Профиль формата : High@L4.1
Параметр CABAC формата : Да
Параметр ReFrames формата : 15 кадров
Идентификатор кодека : V_MPEG4/ISO/AVC
Продолжительность : 1 ч. 59 м.
Битрейт : 2250 Кбит/сек
Ширина : 714 пикселей
Высота : 410 пикселей
Соотношение сторон : 1,85:1
Соотношение сторон в оригинале : 1,85:1
Режим частоты кадров : Постоянный
Частота кадров : 25,000 кадров/сек
Цветовое пространство : YUV
Субдискретизация насыщенности : 4:2:0
Битовая глубина : 8 бит
Тип развёртки : Прогрессивная
Бит/(Пиксели*Кадры) : 0.307
Размер потока : 1,84 Гбайт (81%)
Библиотека кодирования : x264 core 146 r2538 121396c
Настройки программы : cabac=1 / ref=15 / deblock=1:-2:-2 / analyse=0x3:0x133 / me=umh / subme=10 / psy=1 / psy_rd=1.05:0.10 / mixed_ref=1 / me_range=32 / chroma_me=1 / trellis=2 / 8x8dct=1 / cqm=0 / deadzone=21,11 / fast_pskip=0 / chroma_qp_offset=-3 / threads=12 / lookahead_threads=2 / sliced_threads=0 / nr=0 / decimate=0 / interlaced=0 / bluray_compat=0 / constrained_intra=0 / bframes=7 / b_pyramid=2 / b_adapt=2 / b_bias=0 / direct=3 / weightb=1 / open_gop=0 / weightp=2 / keyint=250 / keyint_min=25 / scenecut=40 / intra_refresh=0 / rc=2pass / mbtree=0 / bitrate=2250 / ratetol=1.0 / qcomp=0.63 / qpmin=0 / qpmax=39 / qpstep=4 / cplxblur=20.0 / qblur=0.5 / ip_ratio=1.40 / pb_ratio=1.30 / aq=1:1.00
Язык : English
Default : Да
Forced : Нет
Цветовой диапазон : Limited
Основные цвета : BT.601 PAL
Характеристики трансфера : BT.470 System B, BT.470 System G
Коэффициенты матрицы : BT.601
Аудио
Идентификатор : 2
Формат : AC-3
Формат/Информация : Audio Coding 3
Расширение режима : CM (complete main)
Параметр Endianness формата : Big
Идентификатор кодека : A_AC3
Продолжительность : 1 ч. 59 м.
Вид битрейта : Постоянный
Битрейт : 448 Кбит/сек
Каналы : 6 каналов
Расположение каналов : Front: L C R, Side: L R, LFE
Частота : 48,0 КГц
Метод сжатия : С потерями
Размер потока : 384 Мбайт (17%)
Язык : Russian
Default : Да
Forced

Релиз от:
Автор релиза:



   Похожие торренты   Торрент   Размер 
В этой теме нет новых непрочитанных сообщений. Восток-Запад (1999) DVDRip от SergV

121 | 2

1.7 ГБ

В этой теме нет новых непрочитанных сообщений. Свидетели. Запад есть Запад. Восток есть Восток. Всеволод Овчинников [01-02 из 02] (2011) SATRip от КинозалSAT

3 | 1

1.08 ГБ

В этой теме нет новых непрочитанных сообщений. Восток-Запад (1999) DVD9 от Odyzic и MyWorldFilm

6 | 2

7.48 ГБ

В этой теме нет новых непрочитанных сообщений. Восток есть восток / East Is East (1999) HDRip от Portablius | P

7 | 3

745.22 МБ

В этой теме нет новых непрочитанных сообщений. Восток есть восток / East Is East (1999) BDRip от HQCLUB

82 | 25

1.45 ГБ

В этой теме нет новых непрочитанных сообщений. Восток есть восток / East Is East (1999) BDRip 720p

146 | 24

4.37 ГБ

В этой теме нет новых непрочитанных сообщений. Московский камерный мужской хор Пересвет - От Восток солнца до Запад хвально Имя Господне (2001) MP3

141 | 6

128.96 МБ




Вы не можете начинать темы
Вы не можете отвечать на сообщения
Вы не можете редактировать свои сообщения
Вы не можете удалять свои сообщения
Вы не можете добавлять вложения

Перейти:  
Для Мосгорсуда, Роскомнадзора и рекламодателей: mosgorsud-torrent[собачка]yandex.ru
Настройки
ppkBB3cker v.2 © 2008-2014 @ PPK
[ Time : 0.182s | 15 Queries | GZIP : Off ]
CGP [Extreme] output time : 0.00020s | 0 Queries | GZIP : Off

Торрент трекер RUTOR.IN, Не можете зайти на rutor.org? Какой новый адрес рутор? Какое зеркало рутор? Не работает rutor.org и зеркала? Тогда наш торрент специально для вас. Rutor.in неофициальное зеркало rutor. В случае если у Вас заблокирован rutor или вдруг Вы не можете на него зайти, то Вы без труда сможете скачать бесплатно и без рекламы последние новинки кино, игр, сериалов и прочего у нас, на Rutor.in. Не нужно использовать прокси, чтобы зайти на рутор, достаточно воспользоваться нашим ресурсом. Все новые фильмы, игры, сериалы, книги и музыка за 2013 и 2014 годы через торрент бесплатно. Скачивайте фильмы в хорошем качестве, игры для пк, xbox, playstation без регистрации. У нас вы найдете новые Зарубежные сериалы и Русские сериалы 2013, 2014, 2015 годов. Оставайтесь с нами, качайте любимые фильмы, игры, сериалы, книги и музыку.