img image001 image001 image001 image001 image001 image001 image001 image001 image001 image001 image001 image001 image001 image001 image001

Planets Sun Sun Sun
Статистика раздачи
Автор: Nickolas3434 | Размер: 1.45 ГБ | Добавлен: 11 ноя 2015
Раздают: 121    Качают: 29
Скачать торрент
Скачать торрент
Описание торрента

СообщениеДобавлено: 11 ноя 2015 


Информация о фильме
Название: Пять вечеров
Год выхода: 1978
Жанр: Мелодрама, экранизация
Режиссер: Никита Михалков
В ролях: Людмила Гурченко, Станислав Любшин, Валентина Теличкина, Лариса Кузнецова, Игорь Нефёдов, Александр Адабашьян, Ольга Николаева, Наум Канарский, Нина Тер-Осипян, Сергей Лобанков, Людмила Гайликовская, Инна Выходцева, Валентин Кулик
О фильме: СССР, 1950-е годы. Александр Ильин, работающий шофером грузовика в Воркуте, приезжает в командировку в Москву, где случайно встречает Тамару Васильевну, с которой давно не виделся. Они познакомились восемнадцать лет назад, он снимал у нее комнату, когда учился в институте, их разлучила война. Ильин приходит к Тамаре. Она живет одна, воспитывает сына умершей в войну сестры, работает мастером на фабрике "Парижская Коммуна". За бодрыми фразами прячет житейскую неустроенность, горечь одиночества. Ильин хорохорится, рассказывая о своей работе, блестящих перспективах, но всё это - ложь...
Страна: СССР, Мосфильм
Продолжительность: 01:37:57
Перевод: не требуется
Файл
Кодек: x264
Качество: DVDRip-AVC
Видео: MPEG-4 AVC, 1870 Кбит/с, 718x576@765x576
Звук: AC3, 2 ch, 256 Кбит/с

raw [info]: 718x574p 16:15 @ 25/1 fps (cfr)
x264 [info]: using SAR=16/15
x264 [info]: using cpu capabilities: MMX2 SSE2Fast SSSE3 SSE4.2 AVX
x264 [info]: profile High, level 4.1
x264 [info]: frame I:46 Avg QP:14.94 size: 62108
x264 [info]: frame P:547 Avg QP:18.44 size: 20481
x264 [info]: frame B:1939 Avg QP:20.59 size: 5364
======================================================================================================
Общее
Уникальный идентификатор : 216396310789098550691962276600327406220 (0xA2CC69D9D965E404A97800D182DB828C)
Полное имя : D:Пять вечеров_1978-DVDRip-AVC.mkv
Формат : Matroska
Версия формата : Version 2
Размер файла : 1,45 Гбайт
Продолжительность : 1 ч. 37 м.
Общий поток : 2128 Кбит/сек
Дата кодирования : UTC 2015-11-10 21:05:17
Программа кодирования : mkvmerge v5.8.0 ('No Sleep / Pillow') built on Sep 2 2012 15:37:04
Библиотека кодирования : libebml v1.2.3 + libmatroska v1.3.0
Видео
Идентификатор : 1
Формат : AVC
Формат/Информация : Advanced Video Codec
Профиль формата : High@L4.1
Параметр CABAC формата : Да
Параметр ReFrames формата : 14 кадров
Идентификатор кодека : V_MPEG4/ISO/AVC
Продолжительность : 1 ч. 37 м.
Битрейт : 1870 Кбит/сек
Ширина : 718 пикселей
Высота : 576 пикселей
Соотношение сторон : 4:3
Соотношение сторон в оригинале : 4:3
Режим частоты кадров : Постоянный
Частота кадров : 25,000 кадров/сек
Цветовое пространство : YUV
Субдискретизация насыщенности : 4:2:0
Битовая глубина : 8 бит
Тип развёртки : Прогрессивная
Бит/(Пиксели*Кадры) : 0.181
Размер потока : 1,25 Гбайт (86%)
Библиотека кодирования : x264 core 146 r2538 121396c
Настройки программы : cabac=1 / ref=14 / deblock=1:-2:-2 / analyse=0x3:0x133 / me=umh / subme=10 / psy=1 / psy_rd=1.05:0.10 / mixed_ref=1 / me_range=32 / chroma_me=1 / trellis=2 / 8x8dct=1 / cqm=0 / deadzone=21,11 / fast_pskip=0 / chroma_qp_offset=-3 / threads=12 / lookahead_threads=2 / sliced_threads=0 / nr=0 / decimate=0 / interlaced=0 / bluray_compat=0 / constrained_intra=0 / bframes=7 / b_pyramid=2 / b_adapt=2 / b_bias=0 / direct=3 / weightb=1 / open_gop=0 / weightp=2 / keyint=250 / keyint_min=25 / scenecut=40 / intra_refresh=0 / rc=2pass / mbtree=0 / bitrate=1870 / ratetol=1.0 / qcomp=0.63 / qpmin=0 / qpmax=39 / qpstep=4 / cplxblur=20.0 / qblur=0.5 / ip_ratio=1.40 / pb_ratio=1.30 / aq=1:1.00
Язык : English
Default : Да
Forced : Нет
Цветовой диапазон : Limited
Основные цвета : BT.601 PAL
Характеристики трансфера : BT.470 System B, BT.470 System G
Коэффициенты матрицы : BT.601
Аудио
Идентификатор : 2
Формат : AC-3
Формат/Информация : Audio Coding 3
Расширение режима : CM (complete main)
Параметр Endianness формата : Big
Идентификатор кодека : A_AC3
Продолжительность : 1 ч. 37 м.
Вид битрейта : Постоянный
Битрейт : 256 Кбит/сек
Каналы : 2 канала
Расположение каналов : Front: L R
Частота : 48,0 КГц
Метод сжатия : С потерями
Размер потока : 179 Мбайт (12%)
Язык : Russian
Default : Да
Forced : Нет

Релиз от:
Автор релиза:



   Похожие торренты   Торрент   Размер 
В этой теме нет новых непрочитанных сообщений. Пять вечеров (1978) DVDRip-AVC

274 | 11

1.09 ГБ

В этой теме нет новых непрочитанных сообщений. Пять вечеров (1978) DVDRip

67 | 7

1.37 ГБ

В этой теме нет новых непрочитанных сообщений. Пять братьев / Brothers Five (1970) DVDRip - ExKinoRay

0 | 2

1.47 ГБ

В этой теме нет новых непрочитанных сообщений. Я считаю: раз, два, три, четыре, пять... (2007) DVDRip - ExKinoRay

10 | 2

1.47 ГБ

В этой теме нет новых непрочитанных сообщений. Пять злодеев / Wu du / Five Deadly Venoms (1978) BDRip-AVC от MediaClub

42 | 19

2.18 ГБ

В этой теме нет новых непрочитанных сообщений. Пять злодеев / Wu du / Five Deadly Venoms (1978) BDRip 720p от MediaClub

12 | 12

4.24 ГБ

В этой теме нет новых непрочитанных сообщений. Пять злодеев / Five Deadly Venoms / The Five Venoms / Wu du (1978) HDRip от RG Orient Extreme | P1

32 | 2

1.46 ГБ




Вы не можете начинать темы
Вы не можете отвечать на сообщения
Вы не можете редактировать свои сообщения
Вы не можете удалять свои сообщения
Вы не можете добавлять вложения

Перейти:  
Для Мосгорсуда, Роскомнадзора и рекламодателей: mosgorsud-torrent[собачка]yandex.ru
 Вход
ppkBB3cker v.2 © 2008-2014 @ PPK
[ Time : 1.704s | 15 Queries | GZIP : Off ]

Торрент трекер RUTOR.IN, Не можете зайти на rutor.org? Какой новый адрес рутор? Какое зеркало рутор? Не работает rutor.org и зеркала? Тогда наш торрент специально для вас. Rutor.in неофициальное зеркало rutor. В случае если у Вас заблокирован rutor или вдруг Вы не можете на него зайти, то Вы без труда сможете скачать бесплатно и без рекламы последние новинки кино, игр, сериалов и прочего у нас, на Rutor.in. Не нужно использовать прокси, чтобы зайти на рутор, достаточно воспользоваться нашим ресурсом. Все новые фильмы, игры, сериалы, книги и музыка за 2013 и 2014 годы через торрент бесплатно. Скачивайте фильмы в хорошем качестве, игры для пк, xbox, playstation без регистрации. У нас вы найдете новые Зарубежные сериалы и Русские сериалы 2013, 2014, 2015 годов. Оставайтесь с нами, качайте любимые фильмы, игры, сериалы, книги и музыку.