img image001 image001 image001 image001 image001 image001 image001 image001 image001 image001 image001 image001 image001 image001 image001

Planets Sun Sun Sun
Статистика раздачи
Автор: Nickolas3434 | Размер: 1.1 ГБ | Добавлен: 12 ноя 2015
Раздают: 36    Качают: 8
Скачать торрент
Скачать торрент
Описание торрента

СообщениеДобавлено: 12 ноя 2015 


Информация о фильме
Название: После ярмарки
Год выхода: 1972
Жанр: комедия, экранизация
Режиссер: Юрий Цветков
В ролях: Людмила Сенчина, Иван Гаврилюк, Борис Новиков, Галина Макарова, Михаил Пуговкин, Любовь Малиновская, Августин Милованов, Степан Хацкевич, Станислав Чекан, Ростислав Шмырёв
О фильме:
Телефильм по мотивам пьесы Я.Купалы «Павлинка».
Крестьянская дочь Павлинка любит сельского учителя Якима. Но ее отец, мечтая породниться с дворянским родом, хочет выдать дочь за глупого шляхтича Быковского. После застолья, устроенного родителями Павлинки в честь приезда Быковского, гостя в темноте принимают за вора и заключают под арест. Воспользовавшись этим недоразумением, Яким похищает свою любимую.
Страна: СССР
Студия: Беларусьфильм
Продолжительность: 01:02:48
Перевод: не требуется
Файл
Кодек: AVC (H264)
Качество: DVB
Видео: MPEG4 Video (H264) 720x576 (49:36) 25fps, 2 206 Kbps
Звук: MPEG Audio 48000Hz stereo 256kbps
Семпл
Код:
General
Unique ID                      : 175754483667429896962455776961155794052 (0x843915115215C295153A4BA375478484)
Complete name                  : D:Новая  земля 2Художественные фильмыПосле ярмарки (1972)После ярмарки (1972).mkv
Format                         : Matroska
Format version                 : Version 2
File size                      : 1.10 GiB
Duration                       : 1h 2mn
Overall bit rate               : 2 512 Kbps
Writing application            : Lavf52.64.2
Writing library                : Lavf52.64.2
Video
ID                             : 1
Format                         : AVC
Format/Info                    : Advanced Video Codec
Format profile                 : Main@L3.0
Format settings, CABAC         : Yes
Format settings, ReFrames      : 4 frames
Format settings, GOP           : M=4, N=24
Codec ID                       : V_MPEG4/ISO/AVC
Duration                       : 1h 2mn
Bit rate                       : 2 206 Kbps
Width                          : 720 pixels
Height                         : 576 pixels
Display aspect ratio           : 4:3
Original display aspect ratio  : 4:3
Frame rate mode                : Constant
Frame rate                     : 25.000 fps
Standard                       : PAL
Color space                    : YUV
Chroma subsampling             : 4:2:0
Bit depth                      : 8 bits
Scan type                      : MBAFF
Scan order                     : Top Field First
Bits/(Pixel*Frame)             : 0.213
Stream size                    : 991 MiB (88%)
Default                        : Yes
Forced                         : No
Color primaries                : BT.601 PAL
Transfer characteristics       : BT.470 System B, BT.470 System G
Matrix coefficients            : BT.601
Color range                    : Limited
Audio
ID                             : 2
Format                         : MPEG Audio
Format version                 : Version 1
Format profile                 : Layer 2
Codec ID                       : A_MPEG/L2
Codec ID/Hint                  : MP2
Duration                       : 1h 2mn
Bit rate mode                  : Constant
Bit rate                       : 256 Kbps
Channel(s)                     : 2 channels
Sampling rate                  : 48.0 KHz
Compression mode               : Lossy
Stream size                    : 115 MiB (10%)
Language                       : English
Default                        : Yes
Forced                         : No





   Похожие торренты   Торрент   Размер 
В этой теме нет новых непрочитанных сообщений. Завтра будет поздно (1972) DVB от AND03AND

8 | 1

1.65 ГБ

В этой теме нет новых непрочитанных сообщений. Мюнхен 1972. Секретные материалы / Munich 1972. The Secret behind the Olympic Attacks (2005) SATRip

25 | 2

498.79 МБ

В этой теме нет новых непрочитанных сообщений. За что? / Za co? (1995) DVB от AND03AND

7 | 0

1.82 ГБ

В этой теме нет новых непрочитанных сообщений. Тишина (1960) DVB от AND03AND

18 | 1

1.5 ГБ

В этой теме нет новых непрочитанных сообщений. Облака (1973) DVB от AND03AND

1 | 0

1.41 ГБ

В этой теме нет новых непрочитанных сообщений. И о чём-то другом (2014) DVB от AND03AND

0 | 0

642.54 МБ

В этой теме нет новых непрочитанных сообщений. И о чём-то другом (2014) DVB от AND03AND

0 | 0

679.44 МБ




Вы не можете начинать темы
Вы не можете отвечать на сообщения
Вы не можете редактировать свои сообщения
Вы не можете удалять свои сообщения
Вы не можете добавлять вложения

Перейти:  
Для Мосгорсуда, Роскомнадзора и рекламодателей: mosgorsud-torrent[собачка]yandex.ru
 Вход
ppkBB3cker v.2 © 2008-2014 @ PPK
[ Time : 0.036s | 15 Queries | GZIP : Off ]

Торрент трекер RUTOR.IN, Не можете зайти на rutor.org? Какой новый адрес рутор? Какое зеркало рутор? Не работает rutor.org и зеркала? Тогда наш торрент специально для вас. Rutor.in неофициальное зеркало rutor. В случае если у Вас заблокирован rutor или вдруг Вы не можете на него зайти, то Вы без труда сможете скачать бесплатно и без рекламы последние новинки кино, игр, сериалов и прочего у нас, на Rutor.in. Не нужно использовать прокси, чтобы зайти на рутор, достаточно воспользоваться нашим ресурсом. Все новые фильмы, игры, сериалы, книги и музыка за 2013 и 2014 годы через торрент бесплатно. Скачивайте фильмы в хорошем качестве, игры для пк, xbox, playstation без регистрации. У нас вы найдете новые Зарубежные сериалы и Русские сериалы 2013, 2014, 2015 годов. Оставайтесь с нами, качайте любимые фильмы, игры, сериалы, книги и музыку.
cron