img image001 image001 image001 image001 image001 image001 image001 image001 image001 image001 image001 image001 image001 image001 image001

Planets Sun Sun Sun
Статистика раздачи
Автор: Nickolas3434 | Размер: 742.74 МБ | Добавлен: 12 ноя 2015
Раздают: 92    Качают: 17
Скачать торрент
Скачать торрент
Описание торрента

СообщениеДобавлено: 12 ноя 2015 

Три
«Чем ближе ко дну океана, тем он темнее»


Страна: Германия, Россия
Жанр: ужасы, триллер, драма
Год выпуска: 2015
Продолжительность: 01:20:25
Перевод: Не требуется (русский) [Лицензия BD GER]
Субтитры: английские
Режиссер: Павел Хвалеев
В ролях: Полина Давыдова, Евгений Гагарин, Любовь Игнатушко
Описание:
В маленький европейский городок, в котором живут сёстры Айя и Мирра, пришла неизвестная болезнь, которая унесла жизни многих горожан. После смерти мамы заболевает младшая Мирра. Понимая, что традиционная медицина бессильна перед болезнью сестры, Айя обращается за помощью к близкому другу семьи, приходскому священнику отцу Герману. В его доме Айя случайно находит книги далёкие от традиционной религии.
Она узнаёт, что только проникнув в больное подсознание Мирры и отыскав истинную причину её болезни, она получит шанс на спасение сестры. Айя готова пройти страшный ритуал, погрузиться в недра подсознания и встретиться лицом к лицу с обитающими там демонами. Но сможет ли она справиться с собственным страхом, когда узнает все тайны прошлой жизни сестры?

Релиз:
Автор рипа: Stalker oK
Сэмпл
Качество видео: BDRip-AVC [Blu-ray 1080p]
Формат видео: MKV
Видео кодек: AVC
Аудио кодек: AC3
Видео: 1102 Кбит/сек, 960*408 (2,35:1), в 24,000 кадр/сек, AVC
Аудио: русский, 192 Кбит/сек, 48 КГц, 16 бит, 2.0, AC3
Навигация по главам: есть

Общее
Уникальный идентификатор : 250837539002299703518129681276482152830 (0xBCB58D814AD03D3785B5DDDDBB74E97E)
Полное имя : M:RipsIIITri.2015.BDRip-AVC.745Mb...stalkerok.new-team.mkv
Формат : Matroska
Размер файла : 743 Мбайт
Продолжительность : 1 ч. 20 м.
Общий поток : 1291 Кбит/сек
Название фильма : Tri (2015) (New-Team) (Rip by Stalker oK)
Дата кодирования : UTC 2015-11-11 16:34:09
Программа кодирования : mkvmerge v7.9.0 ('Birds') 64bit
Библиотека кодирования : libebml v1.3.1 + libmatroska v1.4.2
Видео
Идентификатор : 1
Формат : AVC
Формат/Информация : Advanced Video Codec
Профиль формата : High@L4.1
Параметр CABAC формата : Да
Параметр ReFrames формата : 16 кадры
Идентификатор кодека : V_MPEG4/ISO/AVC
Продолжительность : 1 ч. 20 м.
Битрейт : 1102 Кбит/сек
Ширина : 960 пикс.
Высота : 408 пикс.
Соотношение сторон : 2,35:1
Частота кадров : 24,000 кадр/сек
Цветовое пространство : YUV
Подвыборка цветности : 4:2:0
Битовая глубина : 8 бит
Тип развёртки : Прогрессивная
Бит/(Пиксели*Кадры) : 0.117
Размер потока : 618 Мбайт (83%)
Заголовок : Tri (2015) (New-Team) (Rip by Stalker oK)
Библиотека кодирования : x264 core 146 r2538kMod 121396c
Настройки программы : cabac=1 / ref=16 / deblock=1:-3:-3 / analyse=0x3:0x133 / me=umh / subme=11 / psy=1 / fade_compensate=0.00 / psy_rd=1.00:0.12 / mixed_ref=1 / me_range=48 / chroma_me=1 / trellis=2 / 8x8dct=1 / cqm=0 / deadzone=21,11 / fast_pskip=0 / chroma_qp_offset=-3 / threads=12 / lookahead_threads=3 / sliced_threads=0 / nr=0 / decimate=0 / interlaced=0 / bluray_compat=0 / constrained_intra=0 / fgo=0 / bframes=16 / b_pyramid=2 / b_adapt=2 / b_bias=0 / direct=3 / weightb=1 / open_gop=0 / weightp=2 / keyint=240 / keyint_min=24 / scenecut=40 / intra_refresh=0 / rc_lookahead=60 / rc=2pass / mbtree=0 / bitrate=1102 / ratetol=1.0 / qcomp=0.70 / qpmin=0 / qpmax=69 / qpstep=4 / cplxblur=20.0 / qblur=0.5 / vbv_maxrate=50000 / vbv_bufsize=62500 / nal_hrd=none / filler=0 / ip_ratio=1.40 / pb_ratio=1.30 / aq=3:0.95
Аудио
Идентификатор : 2
Формат : AC-3
Формат/Информация : Audio Coding 3
Расширение режима : CM (complete main)
Идентификатор кодека : A_AC3
Продолжительность : 1 ч. 20 м.
Вид битрейта : Постоянный
Битрейт : 192 Кбит/сек
Канал(ы) : 2 канала(ов)
Расположение каналов : Front: L R
Частота : 48,0 КГц
Битовая глубина : 16 бит
Метод сжатия : С потерями
Размер потока : 110 Мбайт (15%)
Язык : Russian
Текст
Идентификатор : 3
Формат : UTF-8
Идентификатор кодека : S_TEXT/UTF8
Идентификатор кодека/Информация : UTF-8 Plain Text
Язык : English
Меню
00:00:00.000 : en:Chapter 1
00:05:22.958 : en:Chapter 2
00:11:29.083 : en:Chapter 3
00:19:20.208 : en:Chapter 4
00:31:55.125 : en:Chapter 5
00:40:51.958 : en:Chapter 6
00:50:59.625 : en:Chapter 7
01:01:12.750 : en:Chapter 8





   Похожие торренты   Торрент   Размер 
В этой теме нет новых непрочитанных сообщений. Три (2015) BDRip-AVC от New-Team | Лицензия

337 | 77

1.46 ГБ

В этой теме нет новых непрочитанных сообщений. Он – дракон (2015) BDRip-AVC от New-Team | Лицензия

673 | 38

1.44 ГБ

В этой теме нет новых непрочитанных сообщений. Он – дракон (2015) BDRip-AVC от New-Team | Лицензия

140 | 11

742.52 МБ

В этой теме нет новых непрочитанных сообщений. Макс / Max (2015) BDRip-AVC от New-Team | Лицензия

479 | 31

2.18 ГБ

В этой теме нет новых непрочитанных сообщений. Дом / Home (2015) BDRip-AVC от New-Team | D | Лицензия

588 | 50

1.45 ГБ

В этой теме нет новых непрочитанных сообщений. Макс / Max (2015) BDRip-AVC от New-Team | Лицензия

428 | 23

1.46 ГБ

В этой теме нет новых непрочитанных сообщений. Дом / Home (2015) BDRip-AVC от New-Team | D | Лицензия

1218 | 33

745.38 МБ




Вы не можете начинать темы
Вы не можете отвечать на сообщения
Вы не можете редактировать свои сообщения
Вы не можете удалять свои сообщения
Вы не можете добавлять вложения

Перейти:  
Для Мосгорсуда, Роскомнадзора и рекламодателей: mosgorsud-torrent[собачка]yandex.ru
 Вход
ppkBB3cker v.2 © 2008-2014 @ PPK
[ Time : 0.040s | 16 Queries | GZIP : Off ]

cron