img image001 image001 image001 image001 image001 image001 image001 image001 image001 image001 image001 image001 image001 image001 image001

Planets Sun Sun Sun
Статистика раздачи
Автор: Nickolas3434 | Размер: 6.18 ГБ | Добавлен: 12 ноя 2015
Раздают: 249    Качают: 66
Скачать торрент
Скачать торрент
Описание торрента

СообщениеДобавлено: 12 ноя 2015 


Информация о фильме
Название: Д'Артаньян и три мушкетера
Год выхода: 1979
Жанр: Приключения, музыкальный
Режиссер: Георгий Юнгвальд-Хилькевич
В ролях: Михаил Боярский, Игорь Старыгин, Вениамин Смехов, Валентин Смирнитский, Лев Дуров, Олег Табаков, Алиса Фрейндлих, Маргарита Терехова, Елена Цыплакова, Ирина Алферова, Юрий Шерстнев, Александр Трофимов, Борис Клюев, Юрий Дубровин, Леонид Каневский, Инга Третьякова, Владимир Балон, Алексей Кузнецов, Анатолий Ходюшин, Иосиф Кринский, Ольга Матешко, Мария Ярыгина, Евгений Данчевский, Владимир Долинский, Виктор Павловский, Валентина Клименко, Геннадий Макоев, Елена Мелентьева, Валентин Букин, Георгий Юнгвальд-Хилькевич
О фильме: Это замечательный трехсерийный музыкальный фильм, снятый по одному из самых знаменитых приключенческих романов Александра Дюма. Четверо друзей - мушкетеров спасают честь королевы Франции, вступают в единоборство с всесильным кардиналом Ришелье и коварной Миледи, а главное - наслаждаются жизнью. Текст песен Юрия Ряшенцева. Песни поют сами актеры, а им помогают ансамбли "Коробейники" и "Фестиваль"...
Страна: СССР
Продолжительность: 3 x ~ 01:25:00
Перевод: не требуется
Файл
Кодек: x264
Качество: DVDRip-AVC
Видео: MPEG-4 AVC, ~ 3100 Кбит/с, 716x576@763x576, 716x574@763x574
Звук: AC3, 6 ch, 384 Кбит/с

Общее
Уникальный идентификатор : 185641316350975719414615922886461630123 (0x8BA9378DCF0E7CE899311BED6EAC26AB)
Полное имя : R:МОИ РИПЫД`Артаньян и три мушкетера_1979-DVDRip-AVCМушкетёры-1.mkv
Формат : Matroska
Версия формата : Version 2
Размер файла : 2,13 Гбайт
Продолжительность : 1 ч. 25 м.
Общий поток : 3573 Кбит/сек
Дата кодирования : UTC 2015-11-11 23:22:30
Программа кодирования : mkvmerge v5.8.0 ('No Sleep / Pillow') built on Sep 2 2012 15:37:04
Библиотека кодирования : libebml v1.2.3 + libmatroska v1.3.0
Видео
Идентификатор : 1
Формат : AVC
Формат/Информация : Advanced Video Codec
Профиль формата : High@L4.1
Параметр CABAC формата : Да
Параметр ReFrames формата : 14 кадров
Идентификатор кодека : V_MPEG4/ISO/AVC
Продолжительность : 1 ч. 25 м.
Битрейт : 3117 Кбит/сек
Ширина : 716 пикселей
Высота : 576 пикселей
Соотношение сторон : 4:3
Соотношение сторон в оригинале : 4:3
Режим частоты кадров : Постоянный
Частота кадров : 25,000 кадров/сек
Цветовое пространство : YUV
Субдискретизация насыщенности : 4:2:0
Битовая глубина : 8 бит
Тип развёртки : Прогрессивная
Бит/(Пиксели*Кадры) : 0.302
Размер потока : 1,86 Гбайт (87%)
Библиотека кодирования : x264 core 146 r2538 121396c
Настройки программы : cabac=1 / ref=14 / deblock=1:-2:-2 / analyse=0x3:0x133 / me=umh / subme=10 / psy=1 / psy_rd=1.05:0.10 / mixed_ref=1 / me_range=32 / chroma_me=1 / trellis=2 / 8x8dct=1 / cqm=0 / deadzone=21,11 / fast_pskip=1 / chroma_qp_offset=-3 / threads=12 / lookahead_threads=2 / sliced_threads=0 / nr=0 / decimate=1 / interlaced=0 / bluray_compat=0 / constrained_intra=0 / bframes=8 / b_pyramid=2 / b_adapt=2 / b_bias=0 / direct=1 / weightb=1 / open_gop=0 / weightp=2 / keyint=250 / keyint_min=25 / scenecut=40 / intra_refresh=0 / rc=crf / mbtree=0 / crf=18.3 / qcomp=0.63 / qpmin=0 / qpmax=39 / qpstep=4 / ip_ratio=1.40 / pb_ratio=1.30 / aq=1:1.00
Язык : English
Default : Да
Forced : Нет
Цветовой диапазон : Limited
Основные цвета : BT.601 PAL
Характеристики трансфера : BT.470 System B, BT.470 System G
Коэффициенты матрицы : BT.601
Аудио
Идентификатор : 2
Формат : AC-3
Формат/Информация : Audio Coding 3
Расширение режима : CM (complete main)
Параметр Endianness формата : Big
Идентификатор кодека : A_AC3
Продолжительность : 1 ч. 25 м.
Вид битрейта : Постоянный
Битрейт : 384 Кбит/сек
Каналы : 6 каналов
Расположение каналов : Front: L C R, Side: L R, LFE
Частота : 48,0 КГц
Метод сжатия : С потерями
Размер потока : 234 Мбайт (11%)
Язык : Russian
Default : Да
Forced : Нет

Релиз от:
Автор релиза:



   Похожие торренты   Торрент   Размер 
В этой теме нет новых непрочитанных сообщений. Д`Артаньян и три мушкетера (1979) DVDRip

123 | 62

4.37 ГБ

В этой теме нет новых непрочитанных сообщений. Д`Артаньян и три мушкетера (1979) DVDRip-AVC от New-Team

28 | 7

3.63 ГБ

В этой теме нет новых непрочитанных сообщений. Д`Артаньян и три мушкетера (1979) DVDRip от New-Team

86 | 11

3.64 ГБ

В этой теме нет новых непрочитанных сообщений. Д`Артаньян и три мушкетера (1979) DVDRip от New-Team

97 | 8

2.18 ГБ

В этой теме нет новых непрочитанных сообщений. Д`Артаньян и три мушкетера (1979) DVDRip от MediaClub

371 | 38

1.46 ГБ

В этой теме нет новых непрочитанных сообщений. Д'Артаньян и три мушкетера (1979) DVDRip от MediaClub

74 | 5

2.9 ГБ

В этой теме нет новых непрочитанных сообщений. Д'Артаньян и три мушкетера (1979) DVDRip от MediaClub

277 | 9

4.34 ГБ




Вы не можете начинать темы
Вы не можете отвечать на сообщения
Вы не можете редактировать свои сообщения
Вы не можете удалять свои сообщения
Вы не можете добавлять вложения

Перейти:  
Для Мосгорсуда, Роскомнадзора и рекламодателей: mosgorsud-torrent[собачка]yandex.ru
 Вход
ppkBB3cker v.2 © 2008-2014 @ PPK
[ Time : 0.028s | 16 Queries | GZIP : Off ]

Торрент трекер RUTOR.IN, Не можете зайти на rutor.org? Какой новый адрес рутор? Какое зеркало рутор? Не работает rutor.org и зеркала? Тогда наш торрент специально для вас. Rutor.in неофициальное зеркало rutor. В случае если у Вас заблокирован rutor или вдруг Вы не можете на него зайти, то Вы без труда сможете скачать бесплатно и без рекламы последние новинки кино, игр, сериалов и прочего у нас, на Rutor.in. Не нужно использовать прокси, чтобы зайти на рутор, достаточно воспользоваться нашим ресурсом. Все новые фильмы, игры, сериалы, книги и музыка за 2013 и 2014 годы через торрент бесплатно. Скачивайте фильмы в хорошем качестве, игры для пк, xbox, playstation без регистрации. У нас вы найдете новые Зарубежные сериалы и Русские сериалы 2013, 2014, 2015 годов. Оставайтесь с нами, качайте любимые фильмы, игры, сериалы, книги и музыку.