img image001 image001 image001 image001 image001 image001 image001 image001 image001 image001 image001 image001 image001 image001 image001

Planets Sun Sun Sun
Статистика раздачи
Автор: Nickolas3434 | Размер: 2.78 ГБ | Добавлен: 12 ноя 2015
Раздают: 86    Качают: 36
Скачать торрент
Скачать торрент
Описание торрента

СообщениеДобавлено: 12 ноя 2015 


Информация о фильме
Название: Безымянная звезда
Год выхода: 1978
Жанр: Драма, Мелодрама, Комедия
Режиссер: Михаил Козаков
В ролях: Анастасия Вертинская, Игорь Костолевский, Михаил Козаков, Григорий Лямпе, Светлана Крючкова, Михаил Светин, Ирина Савина, Алла Будницкая, Илья Рутберг, Александр Пятков, Валерий Доррер, Семён Берлин, Евгений Тиличеев, Владимир Курашкин, Ольга Феофанова, Вера Линд
О фильме: Однажды в маленьком городе происходит невероятное происшествие: на вокзале останавливается дизель-электропоезд, всегда следовавший без остановок. Более того, на ночном перроне оказывается одинокая красавица — одна из тех, что никогда прежде не заезжали так далеко от Бухареста. Учитель Марин Мирою дает красавице Моне приют на ночь. Конечно же, молодые люди понимают, что влюблены, и решают не расставаться...
Страна: СССР
Продолжительность: 2 x ~ 01:03:00
Перевод: не требуется
Файл
Кодек: x264
Качество: DVDRip-AVC
Видео: MPEG-4 AVC, ~ 2425 Кбит/с, 720x574@768x574
Звук: AC3, 6 ch, 448 Кбит/с, AC3, 1 ch, 224 Кбит/с

raw [info]: 720x574p 16:15 @ 25/1 fps (cfr)
x264 [info]: using SAR=16/15
x264 [info]: using cpu capabilities: MMX2 SSE2Fast SSSE3 SSE4.2 AVX
x264 [info]: profile High, level 4.1
x264 [info]: frame I:560 Avg QP:18.78 size: 57805
x264 [info]: frame P:20975 Avg QP:20.29 size: 28963
x264 [info]: frame B:72737 Avg QP:22.12 size: 7508
===========================================================================================================
Общее
Уникальный идентификатор : 176174959134271207245473336025181713211 (0x848A101BD6C7134DAB32894A3D6DF33B)
Полное имя : R:МОИ РИПЫБезымянная звезда_1978-DVDRip-AVCЗвезда-1.mkv
Формат : Matroska
Версия формата : Version 2
Размер файла : 1,40 Гбайт
Продолжительность : 1 ч. 2 м.
Общий поток : 3190 Кбит/сек
Дата кодирования : UTC 2015-11-12 07:26:11
Программа кодирования : mkvmerge v5.8.0 ('No Sleep / Pillow') built on Sep 2 2012 15:37:04
Библиотека кодирования : libebml v1.2.3 + libmatroska v1.3.0
Видео
Идентификатор : 1
Формат : AVC
Формат/Информация : Advanced Video Codec
Профиль формата : High@L4.1
Параметр CABAC формата : Да
Параметр ReFrames формата : 14 кадров
Идентификатор кодека : V_MPEG4/ISO/AVC
Продолжительность : 1 ч. 2 м.
Битрейт : 2455 Кбит/сек
Ширина : 720 пикселей
Высота : 574 пикселя
Соотношение сторон : 4:3
Режим частоты кадров : Постоянный
Частота кадров : 25,000 кадров/сек
Цветовое пространство : YUV
Субдискретизация насыщенности : 4:2:0
Битовая глубина : 8 бит
Тип развёртки : Прогрессивная
Бит/(Пиксели*Кадры) : 0.238
Размер потока : 1,08 Гбайт (77%)
Библиотека кодирования : x264 core 146 r2538 121396c
Настройки программы : cabac=1 / ref=14 / deblock=1:-2:-2 / analyse=0x3:0x133 / me=umh / subme=10 / psy=1 / psy_rd=1.05:0.07 / mixed_ref=1 / me_range=32 / chroma_me=1 / trellis=2 / 8x8dct=1 / cqm=0 / deadzone=21,11 / fast_pskip=1 / chroma_qp_offset=-3 / threads=12 / lookahead_threads=2 / sliced_threads=0 / nr=0 / decimate=1 / interlaced=0 / bluray_compat=0 / constrained_intra=0 / bframes=7 / b_pyramid=2 / b_adapt=2 / b_bias=0 / direct=1 / weightb=1 / open_gop=0 / weightp=2 / keyint=250 / keyint_min=25 / scenecut=40 / intra_refresh=0 / rc=crf / mbtree=0 / crf=18.3 / qcomp=0.63 / qpmin=0 / qpmax=39 / qpstep=4 / ip_ratio=1.40 / pb_ratio=1.30 / aq=1:1.00
Язык : English
Default : Да
Forced : Нет
Цветовой диапазон : Limited
Основные цвета : BT.601 PAL
Характеристики трансфера : BT.470 System B, BT.470 System G
Коэффициенты матрицы : BT.601
Аудио #1
Идентификатор : 2
Формат : AC-3
Формат/Информация : Audio Coding 3
Расширение режима : CM (complete main)
Параметр Endianness формата : Big
Идентификатор кодека : A_AC3
Продолжительность : 1 ч. 2 м.
Вид битрейта : Постоянный
Битрейт : 448 Кбит/сек
Каналы : 6 каналов
Расположение каналов : Front: L C R, Side: L R, LFE
Частота : 48,0 КГц
Метод сжатия : С потерями
Размер потока : 201 Мбайт (14%)
Язык : Russian
Default : Да
Forced : Нет
Аудио #2
Идентификатор : 3
Формат : AC-3
Формат/Информация : Audio Coding 3
Расширение режима : CM (complete main)
Параметр Endianness формата : Big
Идентификатор кодека : A_AC3
Продолжительность : 1 ч. 2 м.
Вид битрейта : Постоянный
Битрейт : 224 Кбит/сек
Каналы : 1 канал
Расположение каналов : Front: C
Частота : 48,0 КГц
Метод сжатия : С потерями
Размер потока : 101 Мбайт (7%)
Язык : Russian
Default : Нет
Forced

Релиз от:
Автор релиза:



   Похожие торренты   Торрент   Размер 
В этой теме нет новых непрочитанных сообщений. Безымянная звезда (2 серии из 2) (1978) DVDRip

37 | 5

1.27 ГБ

В этой теме нет новых непрочитанных сообщений. Безымянная звезда (1978) DVDRip-AVC от New-Team

80 | 4

2.18 ГБ

В этой теме нет новых непрочитанных сообщений. Безымянная звезда (1978) DVDRip от New-Team

23 | 5

2.18 ГБ

В этой теме нет новых непрочитанных сообщений. Безымянная звезда (1978) DVDRip от New-Team

118 | 11

1.45 ГБ

В этой теме нет новых непрочитанных сообщений. Безымянная звезда (1978) DVDRip | Реставрация

28 | 11

2.19 ГБ

В этой теме нет новых непрочитанных сообщений. Безымянная звезда (1978) DVD9 | Реставрация

8 | 3

6.58 ГБ

В этой теме нет новых непрочитанных сообщений. Звезда надежды (1978) DVDRip

3 | 7

2.8 ГБ




Вы не можете начинать темы
Вы не можете отвечать на сообщения
Вы не можете редактировать свои сообщения
Вы не можете удалять свои сообщения
Вы не можете добавлять вложения

Перейти:  
Для Мосгорсуда, Роскомнадзора и рекламодателей: mosgorsud-torrent[собачка]yandex.ru
 Вход
ppkBB3cker v.2 © 2008-2014 @ PPK
[ Time : 0.040s | 15 Queries | GZIP : Off ]

Торрент трекер RUTOR.IN, Не можете зайти на rutor.org? Какой новый адрес рутор? Какое зеркало рутор? Не работает rutor.org и зеркала? Тогда наш торрент специально для вас. Rutor.in неофициальное зеркало rutor. В случае если у Вас заблокирован rutor или вдруг Вы не можете на него зайти, то Вы без труда сможете скачать бесплатно и без рекламы последние новинки кино, игр, сериалов и прочего у нас, на Rutor.in. Не нужно использовать прокси, чтобы зайти на рутор, достаточно воспользоваться нашим ресурсом. Все новые фильмы, игры, сериалы, книги и музыка за 2013 и 2014 годы через торрент бесплатно. Скачивайте фильмы в хорошем качестве, игры для пк, xbox, playstation без регистрации. У нас вы найдете новые Зарубежные сериалы и Русские сериалы 2013, 2014, 2015 годов. Оставайтесь с нами, качайте любимые фильмы, игры, сериалы, книги и музыку.
cron