img image001 image001 image001 image001 image001 image001 image001 image001 image001 image001 image001 image001 image001 image001 image001

Planets Sun Sun Sun
Статистика раздачи
Автор: Nickolas3434 | Размер: 745.44 МБ | Добавлен: 14 ноя 2015
Раздают: 140    Качают: 10
Скачать торрент
Скачать торрент
Описание торрента

СообщениеДобавлено: 14 ноя 2015 

Страна: СССР
Производство: Киностудия им. А. Довженко
Жанр: военный, история
Год выпуска: 1963
Продолжительность: 01:20:23
Перевод: Не требуется
Cубтитры: нет
Оригинальная аудиодорожка: русский
Режиссер: Владимир Довгань
В ролях:
Владимир Заманский, Николай Крюков, Георгий Юматов, Геннадий Юхтин, Александр Мовчан, Галина Ляпина, Лилия Калачева, Альберт Акчурин, Леонид Данчишин, Михаил Семенихин, Генаят Кенжехан-Улы, Сергей Кулинич, Виктор Колодный, Валерий Мышастый, Ира Пухтеева, Витя Власов, Лилия Дзюба...
Полный список актёров
Описание:
Идет 250-й день обороны Севастополя. На окраине разбомбленного города, без рации и с горсткой боеприпасов, из последних сил держатся 12 бойцов Советской армии. С ними в укрытии — раненые, женщины и дети. Сообщение Совинформбюро о том, что Севастополь оставлен советскими войсками, открывает им суровую правду — теперь они один на один с врагом. Их единственная надежда — пробиться к морю, но какой ценой дастся доблестным солдатам путь из огненного ада длиной в четыре героических дня?





Источник: DVD5 R5
Качество видео: DVDRip
Формат видео: AVI
Видео: 640x480 (4:3), 25 fps, XviD ~ 1159 kbps avg, 0.151 bit/pixel
Аудио: 48 kHz, MP3 2.0, 128 kbps
Раздача от:
Общее
Полное имя : Troe.sutok.posle.bessmertiya.1963.DVDRip-745_[New-team]_by_AVP_Studio.avi
Формат : AVI
Формат/Информация : Audio Video Interleave
Размер файла : 745 Мбайт
Продолжительность : 1 ч. 20 м.
Общий поток : 1297 Кбит/сек
Программа кодирования : VirtualDubMod 1.5.10.3 | www.virtualdub-fr.org || (build 2550/release)
Библиотека кодирования : VirtualDubMod build 2550/release
Видео
Идентификатор : 0
Формат : MPEG-4 Visual
Профиль формата : Advanced Simple@L5
Параметр BVOP формата : 1
Параметр QPel формата : Нет
Параметр GMC формата : Без точки перехода
Параметр матрицы формата : Выборочная
Идентификатор кодека : XVID
Идентификатор кодека/Подсказка : XviD
Продолжительность : 1 ч. 20 м.
Битрейт : 1159 Кбит/сек
Ширина : 640 пикселей
Высота : 480 пикселей
Соотношение сторон : 4:3
Частота кадров : 25,000 кадров/сек
Цветовое пространство : YUV
Субдискретизация насыщенности : 4:2:0
Битовая глубина : 8 бит
Тип развёртки : Прогрессивная
Метод сжатия : С потерями
Бит/(Пиксели*Кадры) : 0.151
Размер потока : 666 Мбайт (89%)
Библиотека кодирования : XviD 73
Аудио
Идентификатор : 1
Формат : MPEG Audio
Версия формата : Version 1
Профиль формата : Layer 3
Идентификатор кодека : 55
Идентификатор кодека/Подсказка : MP3
Продолжительность : 1 ч. 20 м.
Вид битрейта : Постоянный
Битрейт : 128 Кбит/сек
Каналы : 2 канала
Частота : 48,0 КГц
Метод сжатия : С потерями
Размер потока : 73,6 Мбайт (10%)
Выравнивание : Соединение по промежуткам
Продолжительность промежутка : 40 мс. (1,00 видеокадр)
Время предзагрузки промежутка : 504 мс.
Библиотека кодирования : LAME3.99r
Настройки программы : -m s -V 4 -q 2 -lowpass 17 -b 128





   Похожие торренты   Торрент   Размер 
В этой теме нет новых непрочитанных сообщений. Трое суток после бессмертия (1963) DVDRip от New-Team

42 | 8

1.09 ГБ

В этой теме нет новых непрочитанных сообщений. Трое суток после бессмертия (1963) DVDRip-AVC от New-Team

107 | 8

1.09 ГБ

В этой теме нет новых непрочитанных сообщений. Костёр бессмертия (1955) VHSRip- от New-Team

18 | 3

1.46 ГБ

В этой теме нет новых непрочитанных сообщений. Костёр бессмертия (1955) VHSRip- от New-Team

40 | 8

745.58 МБ

В этой теме нет новых непрочитанных сообщений. Костёр бессмертия (1955) VHSRip-AVC от New-Team

37 | 6

1.46 ГБ

В этой теме нет новых непрочитанных сообщений. Сотрудник ЧК (1963) DVDRip от New-Team

8 | 33

1.46 ГБ

В этой теме нет новых непрочитанных сообщений. Сотрудник ЧК (1963) DVDRip-AVC от New-Team

89 | 15

1.46 ГБ




Вы не можете начинать темы
Вы не можете отвечать на сообщения
Вы не можете редактировать свои сообщения
Вы не можете удалять свои сообщения
Вы не можете добавлять вложения

Перейти:  
Для Мосгорсуда, Роскомнадзора и рекламодателей: mosgorsud-torrent[собачка]yandex.ru
 Вход
ppkBB3cker v.2 © 2008-2014 @ PPK
[ Time : 2.128s | 16 Queries | GZIP : On ]

Торрент трекер RUTOR.IN, Не можете зайти на rutor.org? Какой новый адрес рутор? Какое зеркало рутор? Не работает rutor.org и зеркала? Тогда наш торрент специально для вас. Rutor.in неофициальное зеркало rutor. В случае если у Вас заблокирован rutor или вдруг Вы не можете на него зайти, то Вы без труда сможете скачать бесплатно и без рекламы последние новинки кино, игр, сериалов и прочего у нас, на Rutor.in. Не нужно использовать прокси, чтобы зайти на рутор, достаточно воспользоваться нашим ресурсом. Все новые фильмы, игры, сериалы, книги и музыка за 2013 и 2014 годы через торрент бесплатно. Скачивайте фильмы в хорошем качестве, игры для пк, xbox, playstation без регистрации. У нас вы найдете новые Зарубежные сериалы и Русские сериалы 2013, 2014, 2015 годов. Оставайтесь с нами, качайте любимые фильмы, игры, сериалы, книги и музыку.
cron