img image001 image001 image001 image001 image001 image001 image001 image001 image001 image001 image001 image001 image001 image001 image001

Planets Sun Sun Sun
Статистика раздачи
Автор: Nickolas3434 | Размер: 750.91 МБ | Добавлен: 14 ноя 2015
Раздают: 40    Качают: 27
Скачать торрент
Скачать торрент
Описание торрента

СообщениеДобавлено: 14 ноя 2015 

Страна: СССР
Производство: Киевская к/ст
Жанр: драма, биография, история
Год выпуска: 1951
Продолжительность: 01:48:00
Перевод: Не требуется
Cубтитры: нет
Оригинальная аудиодорожка: русский
Режиссер: Игорь Савченко
В ролях:
Сергей Бондарчук, Владимир Честноков, Николай Тимофеев, Гнат (Игнатий) Юра, Иван Переверзев, Наталья Ужвий, Евгений Самойлов, Михаил Кузнецов, Алексей Консовский, Латиф Файзиев, Анатолий Чемодуров, Марк Бернес, Дмитрий Милютенко, Марианна Стриженова, Лаврентий Масоха, Павел Шпрингфельд, Михаил Трояновский, Михаил Названов, Александр Хвыля, Гарэн Жуковская, Михаил Высоцкий, Геннадий Юдин, Леонид Кмит, Александр Баранов, Константин Сорокин, Григорий Шпигель, Владимир Сошальский, Анна Кушниренко, Федор Гладков, Юрий Критенко...
Полный список актёров
Описание:
Биографический фильм о жизни Тараса Шевченко.
Лето 1841 года. Убит Лермонтов. Весть об этом доходит до скромной мансарды Петербургской Академии художеств, где живет и работает молодой художник и поэт Тарас Шевченко. Выросший в крестьянской украинской семье, познавший все тяготы крепостной жизни, Шевченко уже в годы учения четко и ясно определяет задачи подлинного искусства-служить интересам народа. Окончив Академию, Шевченко едет на Украину. Стихи Тараса проникнуты любовью к простым людям. Помещики-националисты, главари либерально Кирилло-Мефодиевского братства, пытаются «приручить» обезвредить прославленного поэта, но Шевченко навсегда сделал свой выбор-он на стороне народа, его защитник и певец. Гневное свободолюбивое творчество Тараса Шевченко известно всей России. Николай I ссылает поэта рядовым солдатом в далекий прикаспийский форт без права писать и рисовать. В трудные дни поэта поддерживает рядовой солдат-украинец Скобелев, польский революционер Сераковский, капитан Косарев, комендант крепости Усков. О его освобождении хлопочут Чернышевский и Добролюбов. И вот больной, постаревший Шевченко на свободе. Вместе с Чернышевским и Добролюбовым он мечтает о светлом будущем Родины, когда русский и украинский народы сбросят с себя цепи рабства.
«Тарас Шевченко» - последняя работа одного из крупнейших советских кинорежиссеров И.А.Савченко. Он умер в самом разгаре съемок, в декабре 1950 года, фильм заканчивали его ассистенты и ученики А.Алов и В.Наумов.
Первая роль в кино Николая Гринько (бунтарь).





Источник: DVD5 R5
Качество видео: DVDRip
Формат видео: AVI
Видео: 576x432 (4:3), 25 fps, XviD ~ 834 kbps avg, 0.134 bit/pixel
Аудио: 48 kHz, MP3 2.0, 128 kbps
Раздача от:
Общее
Полное имя : Taras.Shevchenko.1951.DVDRip-745_[New-team]_by_AVP_Studio.avi
Формат : AVI
Формат/Информация : Audio Video Interleave
Размер файла : 751 Мбайт
Продолжительность : 1 ч. 47 м.
Общий поток : 972 Кбит/сек
Программа кодирования : VirtualDubMod 1.5.10.3 | www.virtualdub-fr.org || (build 2550/release)
Библиотека кодирования : VirtualDubMod build 2550/release
Видео
Идентификатор : 0
Формат : MPEG-4 Visual
Профиль формата : Advanced Simple@L5
Параметр BVOP формата : 1
Параметр QPel формата : Нет
Параметр GMC формата : Без точки перехода
Параметр матрицы формата : Выборочная
Идентификатор кодека : XVID
Идентификатор кодека/Подсказка : XviD
Продолжительность : 1 ч. 47 м.
Битрейт : 834 Кбит/сек
Ширина : 576 пикселей
Высота : 432 пикселя
Соотношение сторон : 4:3
Частота кадров : 25,000 кадров/сек
Цветовое пространство : YUV
Субдискретизация насыщенности : 4:2:0
Битовая глубина : 8 бит
Тип развёртки : Прогрессивная
Метод сжатия : С потерями
Бит/(Пиксели*Кадры) : 0.134
Размер потока : 645 Мбайт (86%)
Библиотека кодирования : XviD 73
Аудио
Идентификатор : 1
Формат : MPEG Audio
Версия формата : Version 1
Профиль формата : Layer 3
Идентификатор кодека : 55
Идентификатор кодека/Подсказка : MP3
Продолжительность : 1 ч. 47 м.
Вид битрейта : Постоянный
Битрейт : 128 Кбит/сек
Каналы : 2 канала
Частота : 48,0 КГц
Метод сжатия : С потерями
Размер потока : 98,9 Мбайт (13%)
Выравнивание : Соединение по промежуткам
Продолжительность промежутка : 40 мс. (1,00 видеокадр)
Время предзагрузки промежутка : 504 мс.
Библиотека кодирования : LAME3.99r
Настройки программы : -m s -V 4 -q 2 -lowpass 17 -b 128





   Похожие торренты   Торрент   Размер 
В этой теме нет новых непрочитанных сообщений. Тарас Шевченко (1951) DVDRip от New-Team

21 | 8

1.46 ГБ

В этой теме нет новых непрочитанных сообщений. Тарас Шевченко (1951) DVDRip-AVC от New-Team

61 | 24

1.46 ГБ

В этой теме нет новых непрочитанных сообщений. Тарас Шевченко - Кобзарь (2013) MP3

53 | 6

788.06 МБ

В этой теме нет новых непрочитанных сообщений. Олесь Бузина - Тайная история Украины-Руси , Вурдалак Тарас Шевченко (2000-2005) FB2,DOC,TXT

44 | 9

4.41 МБ

В этой теме нет новых непрочитанных сообщений. Пржевальский (1951) DVDRip от New-Team

31 | 7

745.87 МБ

В этой теме нет новых непрочитанных сообщений. Белинский (1951) DVDRip от New-Team

5 | 19

745.32 МБ

В этой теме нет новых непрочитанных сообщений. Белинский (1951) DVDRip от New-Team

48 | 6

1.46 ГБ




Вы не можете начинать темы
Вы не можете отвечать на сообщения
Вы не можете редактировать свои сообщения
Вы не можете удалять свои сообщения
Вы не можете добавлять вложения

Перейти:  
Для Мосгорсуда, Роскомнадзора и рекламодателей: mosgorsud-torrent[собачка]yandex.ru
 Вход
ppkBB3cker v.2 © 2008-2014 @ PPK
[ Time : 0.046s | 16 Queries | GZIP : Off ]

Торрент трекер RUTOR.IN, Не можете зайти на rutor.org? Какой новый адрес рутор? Какое зеркало рутор? Не работает rutor.org и зеркала? Тогда наш торрент специально для вас. Rutor.in неофициальное зеркало rutor. В случае если у Вас заблокирован rutor или вдруг Вы не можете на него зайти, то Вы без труда сможете скачать бесплатно и без рекламы последние новинки кино, игр, сериалов и прочего у нас, на Rutor.in. Не нужно использовать прокси, чтобы зайти на рутор, достаточно воспользоваться нашим ресурсом. Все новые фильмы, игры, сериалы, книги и музыка за 2013 и 2014 годы через торрент бесплатно. Скачивайте фильмы в хорошем качестве, игры для пк, xbox, playstation без регистрации. У нас вы найдете новые Зарубежные сериалы и Русские сериалы 2013, 2014, 2015 годов. Оставайтесь с нами, качайте любимые фильмы, игры, сериалы, книги и музыку.