img image001 image001 image001 image001 image001 image001 image001 image001 image001 image001 image001 image001 image001 image001 image001

Planets Sun Sun Sun
Статистика раздачи
Автор: Nickolas3434 | Размер: 745.89 МБ | Добавлен: 14 ноя 2015
Раздают: 63    Качают: 35
Скачать торрент
Скачать торрент
Описание торрента

СообщениеДобавлено: 14 ноя 2015 

Страна: СССР
Производство: Мосфильм
Жанр: комедия, приключения, спорт
Год выпуска: 1951
Продолжительность: 01:40:41
Перевод: Не требуется
Cубтитры: нет
Оригинальная аудиодорожка: русский
Режиссер: Владимир Петров
В ролях:
Алексей Грибов, Геннадий Сергеев, Маргарита Лифанова, Лев Фричинский, Николай Крючков, В. Зотова, Вадим Синявский, Александр Дегтярь...
Полный список актёров
Описание:
Рабочий уральского завода Ветлугин становится членом московской футбольной команды «Турбина». Известный всей стране капитан и центральный нападающий «Турбины» Виталий Гринько ревностно относится к новичку и пытается опорочить простодушного футболиста. Вся команда принимает сторону новичка, критикует поведение капитана — и в игре с зарубежной командой одерживает победу. Первая роль в кино актера Олега Стриженова.





Источник: DVB
Качество видео: SATRip
Формат видео: AVI
Видео: 576x432 (4:3), 25 fps, XviD ~ 898 kbps avg, 0.144 bit/pixel
Аудио: 48 kHz, MP3 2.0, 128 kbps
Раздача от:
Общее
Полное имя : Sportivnaya.chest.1951.SATRip-745_[New-team]_by_AVP_Studio.avi
Формат : AVI
Формат/Информация : Audio Video Interleave
Размер файла : 746 Мбайт
Продолжительность : 1 ч. 40 м.
Общий поток : 1036 Кбит/сек
Программа кодирования : VirtualDubMod 1.5.10.3 | www.virtualdub-fr.org || (build 2550/release)
Библиотека кодирования : VirtualDubMod build 2550/release
Видео
Идентификатор : 0
Формат : MPEG-4 Visual
Профиль формата : Advanced Simple@L5
Параметр BVOP формата : 1
Параметр QPel формата : Нет
Параметр GMC формата : Без точки перехода
Параметр матрицы формата : Выборочная
Идентификатор кодека : XVID
Идентификатор кодека/Подсказка : XviD
Продолжительность : 1 ч. 40 м.
Битрейт : 898 Кбит/сек
Ширина : 576 пикселей
Высота : 432 пикселя
Соотношение сторон : 4:3
Частота кадров : 25,000 кадров/сек
Цветовое пространство : YUV
Субдискретизация насыщенности : 4:2:0
Битовая глубина : 8 бит
Тип развёртки : Прогрессивная
Метод сжатия : С потерями
Бит/(Пиксели*Кадры) : 0.144
Размер потока : 647 Мбайт (87%)
Библиотека кодирования : XviD 73
Аудио
Идентификатор : 1
Формат : MPEG Audio
Версия формата : Version 1
Профиль формата : Layer 3
Идентификатор кодека : 55
Идентификатор кодека/Подсказка : MP3
Продолжительность : 1 ч. 40 м.
Вид битрейта : Постоянный
Битрейт : 128 Кбит/сек
Каналы : 2 канала
Частота : 48,0 КГц
Метод сжатия : С потерями
Размер потока : 92,2 Мбайт (12%)
Выравнивание : Соединение по промежуткам
Продолжительность промежутка : 40 мс. (1,00 видеокадр)
Время предзагрузки промежутка : 504 мс.
Библиотека кодирования : LAME3.99r
Настройки программы : -m s -V 4 -q 2 -lowpass 17 -b 128





   Похожие торренты   Торрент   Размер 
В этой теме нет новых непрочитанных сообщений. Спортивная честь (1951) SATRip-AVC от New-Team

232 | 5

1.46 ГБ

В этой теме нет новых непрочитанных сообщений. Спортивная честь (1951) SATRip от New-Team

5 | 1

1.46 ГБ

В этой теме нет новых непрочитанных сообщений. Белка и Стрелка: Озорная семейка. Спортивная команда [01-94] (2011-2015) DVDRip от New-Team

21 | 6

7.61 ГБ

В этой теме нет новых непрочитанных сообщений. Белка и Стрелка: Озорная семейка. Спортивная команда [01-94] (2011-2015) DVDRip-AVC от New-Team

37 | 16

7.62 ГБ

В этой теме нет новых непрочитанных сообщений. Белка и Стрелка: Озорная семейка. Спортивная команда. Выпуск 01-09 [01-60 из 60] и [01-18 из 18] (2011-2014) 9xDVD5 от New-Team | лицензия

0 | 8

29 ГБ

В этой теме нет новых непрочитанных сообщений. Честь товарища (1953) DVDRip от New-Team

14 | 9

1.09 ГБ

В этой теме нет новых непрочитанных сообщений. Честь товарища (1953) DVDRip-AVC от New-Team

29 | 8

1.09 ГБ




Вы не можете начинать темы
Вы не можете отвечать на сообщения
Вы не можете редактировать свои сообщения
Вы не можете удалять свои сообщения
Вы не можете добавлять вложения

Перейти:  
Для Мосгорсуда, Роскомнадзора и рекламодателей: mosgorsud-torrent[собачка]yandex.ru
 Вход
ppkBB3cker v.2 © 2008-2014 @ PPK
[ Time : 0.057s | 17 Queries | GZIP : Off ]
CGP output time : 0.044s | 5 Queries | GZIP : Off

Торрент трекер RUTOR.IN, Не можете зайти на rutor.org? Какой новый адрес рутор? Какое зеркало рутор? Не работает rutor.org и зеркала? Тогда наш торрент специально для вас. Rutor.in неофициальное зеркало rutor. В случае если у Вас заблокирован rutor или вдруг Вы не можете на него зайти, то Вы без труда сможете скачать бесплатно и без рекламы последние новинки кино, игр, сериалов и прочего у нас, на Rutor.in. Не нужно использовать прокси, чтобы зайти на рутор, достаточно воспользоваться нашим ресурсом. Все новые фильмы, игры, сериалы, книги и музыка за 2013 и 2014 годы через торрент бесплатно. Скачивайте фильмы в хорошем качестве, игры для пк, xbox, playstation без регистрации. У нас вы найдете новые Зарубежные сериалы и Русские сериалы 2013, 2014, 2015 годов. Оставайтесь с нами, качайте любимые фильмы, игры, сериалы, книги и музыку.