img image001 image001 image001 image001 image001 image001 image001 image001 image001 image001 image001 image001 image001 image001 image001

Planets Sun Sun Sun
Статистика раздачи
Автор: Nickolas3434 | Размер: 1.53 ГБ | Добавлен: 15 ноя 2015
Раздают: 230    Качают: 21
Скачать торрент
Скачать торрент
Описание торрента

СообщениеДобавлено: 15 ноя 2015 


Информация о фильме
Название: За последней чертой
Год выхода: 1991
Жанр: криминальная драма, боевик
Режиссер: Николай Стамбула
В ролях: Евгений Сидихин, Игорь Тальков, Алина Таркинская, Александр Казаков, Виктор Степанов, Татьяна Лютаева, Владимир Яковлев, Екатерина Кмит, Владимир Тальков, Игорь Миркурбанов, Владимир Нисков, Александр Филяс, Фёдор Смирнов, Владимир Кашпур, Олег Маслов, Георгий Айвазов, Ольга Маньшина, Семен Гиндин, Евгений Кулешов, Александр Гловяк, Владимир Брежнев
О фильме: Боксер Сидихин вышел из тюрьмы - девушка ушла к другому, в федерации ему перекрыли все пути. Он поехал продавать машину - его "кинули". Набил "кидалам" по лицу - забрали в милицию, откуда его вызволили сами бандиты во главе с Тальковым. Далее идет история бывшего спортсмена, ставшего рэкитером, но конец не вписывается в стандартную схему прибавления рядов преступности - не очень ловкий по жизни, но честный и простой парень не смог "работать" вышибалой. Сбежав из милиции, - его уже подставили под убийство милиционера - он взял в каждую руку по пистолету и перестрелял всех своих бывших "нанимателей".
Страна: СССР
Продолжительность: 01:42:11
Перевод: не требуется
Файл
Кодек: x264
Качество: DVDRip-AVC
Видео: MPEG-4 AVC, 1949 Кбит/с, 712x570@759x570
Звук: AC3, 2 ch, 192 Кбит/с

raw [info]: 712x570p 16:15 @ 25/1 fps (cfr)
x264 [info]: using SAR=16/15
x264 [info]: using cpu capabilities: MMX2 SSE2Fast SSSE3 SSE4.2 AVX
x264 [info]: profile High, level 4.1
x264 [info]: frame I:33 Avg QP:12.90 size: 56227
x264 [info]: frame P:621 Avg QP:18.19 size: 17650
x264 [info]: frame B:1894 Avg QP:20.78 size: 5337
=========================================================================================================
Общее
Уникальный идентификатор : 222543757092400597704873337741319350750 (0xA76C5E5ABD381F9DBCED3D7D1E6829DE)
Полное имя : D:За последней чертой_1991-DVDRip-AVC.mkv
Формат : Matroska
Версия формата : Version 2
Размер файла : 1,53 Гбайт
Продолжительность : 1 ч. 42 м.
Общий поток : 2143 Кбит/сек
Дата кодирования : UTC 2015-11-13 15:49:53
Программа кодирования : mkvmerge v5.8.0 ('No Sleep / Pillow') built on Sep 2 2012 15:37:04
Библиотека кодирования : libebml v1.2.3 + libmatroska v1.3.0
Видео
Идентификатор : 1
Формат : AVC
Формат/Информация : Advanced Video Codec
Профиль формата : High@L4.1
Параметр CABAC формата : Да
Параметр ReFrames формата : 16 кадров
Идентификатор кодека : V_MPEG4/ISO/AVC
Продолжительность : 1 ч. 42 м.
Битрейт : 1950 Кбит/сек
Ширина : 712 пикселей
Высота : 570 пикселей
Соотношение сторон : 4:3
Режим частоты кадров : Постоянный
Частота кадров : 25,000 кадров/сек
Цветовое пространство : YUV
Субдискретизация насыщенности : 4:2:0
Битовая глубина : 8 бит
Тип развёртки : Прогрессивная
Бит/(Пиксели*Кадры) : 0.192
Размер потока : 1,36 Гбайт (89%)
Библиотека кодирования : x264 core 146 r2538 121396c
Настройки программы : cabac=1 / ref=16 / deblock=1:-2:-2 / analyse=0x3:0x133 / me=umh / subme=10 / psy=1 / psy_rd=1.05:0.17 / mixed_ref=1 / me_range=32 / chroma_me=1 / trellis=2 / 8x8dct=1 / cqm=0 / deadzone=21,11 / fast_pskip=0 / chroma_qp_offset=-3 / threads=12 / lookahead_threads=2 / sliced_threads=0 / nr=0 / decimate=0 / interlaced=0 / bluray_compat=0 / constrained_intra=0 / bframes=9 / b_pyramid=2 / b_adapt=2 / b_bias=0 / direct=3 / weightb=1 / open_gop=0 / weightp=2 / keyint=250 / keyint_min=25 / scenecut=40 / intra_refresh=0 / rc=2pass / mbtree=0 / bitrate=1950 / ratetol=1.0 / qcomp=0.63 / qpmin=0 / qpmax=39 / qpstep=4 / cplxblur=20.0 / qblur=0.5 / ip_ratio=1.40 / pb_ratio=1.30 / aq=1:1.00
Язык : English
Default : Да
Forced : Нет
Цветовой диапазон : Limited
Основные цвета : BT.601 PAL
Характеристики трансфера : BT.470 System B, BT.470 System G
Коэффициенты матрицы : BT.601
Аудио
Идентификатор : 2
Формат : AC-3
Формат/Информация : Audio Coding 3
Расширение режима : CM (complete main)
Параметр Endianness формата : Big
Идентификатор кодека : A_AC3
Продолжительность : 1 ч. 42 м.
Вид битрейта : Постоянный
Битрейт : 192 Кбит/сек
Каналы : 2 канала
Расположение каналов : Front: L R
Частота : 48,0 КГц
Метод сжатия : С потерями
Размер потока : 140 Мбайт (9%)
Язык : Russian
Default : Да
Forced : Нет
: Нет

Релиз от:
Автор релиза:



   Похожие торренты   Торрент   Размер 
В этой теме нет новых непрочитанных сообщений. За последней чертой (1991) DVDRip

247 | 35

1.57 ГБ

В этой теме нет новых непрочитанных сообщений. За последней чертой (1991) DVD5

14 | 4

4.04 ГБ

В этой теме нет новых непрочитанных сообщений. За последней чертой (1991) DVD5

1 | 8

3.87 ГБ

В этой теме нет новых непрочитанных сообщений. За чертой / Out of Line (2001) DVDRip от Киномагия

10 | 10

1.37 ГБ

В этой теме нет новых непрочитанных сообщений. 1911 / Падение последней империи / 1911 Xinhai geming (2011) BDRip-AVC от ExKinoRay

11 | 4

2.15 ГБ

В этой теме нет новых непрочитанных сообщений. А как же Боб? / What About Bob? (1991) DVDRip от ExKinoRay

17 | 9

1.63 ГБ

В этой теме нет новых непрочитанных сообщений. Шоу-бой (1991) DVDRip-AVC от ExKinoRay

68 | 9

1.67 ГБ




Вы не можете начинать темы
Вы не можете отвечать на сообщения
Вы не можете редактировать свои сообщения
Вы не можете удалять свои сообщения
Вы не можете добавлять вложения

Перейти:  
Для Мосгорсуда, Роскомнадзора и рекламодателей: mosgorsud-torrent[собачка]yandex.ru
 Вход
ppkBB3cker v.2 © 2008-2014 @ PPK
[ Time : 0.033s | 16 Queries | GZIP : On ]

Торрент трекер RUTOR.IN, Не можете зайти на rutor.org? Какой новый адрес рутор? Какое зеркало рутор? Не работает rutor.org и зеркала? Тогда наш торрент специально для вас. Rutor.in неофициальное зеркало rutor. В случае если у Вас заблокирован rutor или вдруг Вы не можете на него зайти, то Вы без труда сможете скачать бесплатно и без рекламы последние новинки кино, игр, сериалов и прочего у нас, на Rutor.in. Не нужно использовать прокси, чтобы зайти на рутор, достаточно воспользоваться нашим ресурсом. Все новые фильмы, игры, сериалы, книги и музыка за 2013 и 2014 годы через торрент бесплатно. Скачивайте фильмы в хорошем качестве, игры для пк, xbox, playstation без регистрации. У нас вы найдете новые Зарубежные сериалы и Русские сериалы 2013, 2014, 2015 годов. Оставайтесь с нами, качайте любимые фильмы, игры, сериалы, книги и музыку.