img image001 image001 image001 image001 image001 image001 image001 image001 image001 image001 image001 image001 image001 image001 image001

Planets Sun Sun Sun
Статистика раздачи
Автор: Nickolas3434 | Размер: 1.98 ГБ | Добавлен: 16 ноя 2015
Раздают: 1408    Качают: 44
Скачать торрент
Скачать торрент
Описание торрента

СообщениеДобавлено: 16 ноя 2015 

Информация о фильме
Название: 14+
Год выхода: 2015
Жанр: мелодрама
Режиссер: Андрей Зайцев
В ролях: Глеб Калюжный, Ульяна Васькович, Ольга Озоллапиня, Дмитрий Блохин, Ирина Фролова, Шандор Беркеши, Владислав Горячкин, Дмитрий Баринов, Даниил Пикула, Ксения Пахомова
О фильме: «История первой любви»
Это история первой любви в 14 лет, разворачивающаяся в спальном районе большого города. История современных Ромео и Джульетты, живущих и в социальных сетях, и на улице с их жесткими правилами и законами, по которым влюбленные не хотят и не будут играть. Чтобы быть вместе, главным героям придется преодолеть многое: их школы враждуют между собой, поэтому их любовь — предательство своего района и своей компании. Родители не готовы принять тот факт, что дети стремительно взрослеют и что каждый подросток — личность, имеющий право выбора. Им мешают собственные комплексы и неуверенность в себе, боязнь сделать первый шаг и страх, что тебя не любят и оттолкнут. Но, несмотря на все эти препятствия, настоящая любовь победит всё.

Выпущено: Россия / September Studio
Продолжительность: 01:46:27
Перевод: Оригинал
Файл
Кодек: MPEG-4 AVC (MKV)
Качество: WEB-DLRip-AVC
Видео: AVC, 2500 Kbps, 1024x560
Звук: AC3, 2 ch, 160 Kbps
Субтитры: нет

General
Unique ID :148134396473025434635313134533959963890 (0x6F71A5A1898A3DC9F9E2D9DB18E354F2)
Complete name :D:ДИСК\02.ФИЛЬМЫ СНГ14+ (2015)14Plus.2015.O.WEB-DLRip-AVC.mkv
Format :Matroska
Format version :Version 2
File size :1.98 GiB
Duration :1h 46mn
Overall bit rate :2 662 Kbps
Encoded date :UTC 2015-11-13 22:05:29
Writing application :XviD4PSP 6.0 / 54.29.105
Writing library :XviD4PSP 6.0 / 54.29.105
Video
ID :1
Format :AVC
Format/Info :Advanced Video Codec
Format profile :High@L4.1
Format settings, CABAC :Yes
Format settings, ReFrames :7 frames
Codec ID :V_MPEG4/ISO/AVC
Duration :1h 46mn
Bit rate :2 500 Kbps
Width :1 024 pixels
Height :560 pixels
Display aspect ratio :16:9
Original display aspect ratio :16:9
Frame rate mode :Constant
Frame rate :25.000 fps
Color space :YUV
Chroma subsampling :4:2:0
Bit depth :8 bits
Scan type :Progressive
Bits/(Pixel*Frame) :0.174
Stream size :1.82 GiB (92%)
Writing library :x264 core 128 r2216M 198a7ea
Encoding settings :cabac=1 / ref=8 / deblock=1:-3:-3 / analyse=0x3:0x133 / me=umh / subme=8 / psy=1 / psy_rd=1.00:0.20 / mixed_ref=1 / me_range=16 / chroma_me=1 / trellis=2 / 8x8dct=1 / cqm=0 / deadzone=21,11 / fast_pskip=1 / chroma_qp_offset=-3 / threads=8 / lookahead_threads=1 / sliced_threads=0 / nr=0 / decimate=1 / interlaced=0 / bluray_compat=0 / constrained_intra=0 / bframes=8 / b_pyramid=1 / b_adapt=2 / b_bias=0 / direct=3 / weightb=1 / open_gop=0 / weightp=2 / keyint=250 / keyint_min=25 / scenecut=40 / intra_refresh=0 / rc_lookahead=40 / rc=2pass / mbtree=1 / bitrate=2500 / ratetol=1.0 / qcomp=0.60 / qpmin=0 / qpmax=69 / qpstep=4 / cplxblur=20.0 / qblur=0.5 / ip_ratio=1.40 / aq=1:1.00
Language :English
Default :Yes
Forced :No
_STATISTICS_TAGS :BPS DURATION NUMBER_OF_FRAMES NUMBER_OF_BYTES
DURATION :01:46:27.320000000
NUMBER_OF_FRAMES :159683
NUMBER_OF_BYTES :4067018636
_STATISTICS_WRITING_APP :mkvmerge v8.3.0 ('Over the Horizon') 64bit
_STATISTICS_WRITING_DATE_UTC :2015-11-13 22:05:29
Audio
ID :2
Format :AC-3
Format/Info :Audio Coding 3
Mode extension :CM (complete main)
Format settings, Endianness :Big
Codec ID :A_AC3
Duration :1h 46mn
Bit rate mode :Constant
Bit rate :160 Kbps
Channel(s) :2 channels
Channel positions :Front: L R
Sampling rate :48.0 KHz
Bit depth :16 bits
Compression mode :Lossy
Delay relative to video :27ms
Stream size :122 MiB (6%)
Language :English
Default :Yes
Forced :No
_STATISTICS_TAGS :BPS DURATION NUMBER_OF_FRAMES NUMBER_OF_BYTES
DURATION :01:46:27.413000000
NUMBER_OF_FRAMES :299410
NUMBER_OF_BYTES :111489107
_STATISTICS_WRITING_APP :mkvmerge v8.3.0 ('Over the Horizon') 64bit
_STATISTICS_WRITING_DATE_UTC :2015-11-13 22:05:29



   Похожие торренты   Торрент   Размер 
В этой теме нет новых непрочитанных сообщений. В пустыне смерти / Into the Badlands (2015) [01х01-05 из 06] (2015) WEB-DLRip | КПК | LostFilm

20 | 6

973.49 МБ

В этой теме нет новых непрочитанных сообщений. В пустыне смерти / Into the Badlands (2015) [01х01-02 из 06] (2015) WEB-DLRip | КПК | LostFilm

7 | 0

393.95 МБ

В этой теме нет новых непрочитанных сообщений. Формула 1. Inside Grand Prix 2015 [01-07] (2015) WEB-DLRip 1080р

15 | 11

6.84 ГБ

В этой теме нет новых непрочитанных сообщений. В пустыне смерти / Into the Badlands (2015) [01х01 из 06] (2015) WEB-DLRip | КПК | LostFilm

20 | 0

199.44 МБ

В этой теме нет новых непрочитанных сообщений. Формула 1. Inside Grand Prix 2015. [01-06] (2015) WEB-DLRip 1080р

16 | 12

5.31 ГБ

В этой теме нет новых непрочитанных сообщений. В пустыне смерти / Into the Badlands (2015) [01х01-03 из 06] (2015) WEB-DLRip | КПК | LostFilm

15 | 0

586.14 МБ

В этой теме нет новых непрочитанных сообщений. Формула 1. Inside Grand Prix 2015 [01-07] (2015) WEB-DLRip 1080р

22 | 14

6.08 ГБ




Вы не можете начинать темы
Вы не можете отвечать на сообщения
Вы не можете редактировать свои сообщения
Вы не можете удалять свои сообщения
Вы не можете добавлять вложения

Перейти:  
Для Мосгорсуда, Роскомнадзора и рекламодателей: mosgorsud-torrent[собачка]yandex.ru
 Вход
ppkBB3cker v.2 © 2008-2014 @ PPK
[ Time : 0.034s | 16 Queries | GZIP : Off ]

Торрент трекер RUTOR.IN, Не можете зайти на rutor.org? Какой новый адрес рутор? Какое зеркало рутор? Не работает rutor.org и зеркала? Тогда наш торрент специально для вас. Rutor.in неофициальное зеркало rutor. В случае если у Вас заблокирован rutor или вдруг Вы не можете на него зайти, то Вы без труда сможете скачать бесплатно и без рекламы последние новинки кино, игр, сериалов и прочего у нас, на Rutor.in. Не нужно использовать прокси, чтобы зайти на рутор, достаточно воспользоваться нашим ресурсом. Все новые фильмы, игры, сериалы, книги и музыка за 2013 и 2014 годы через торрент бесплатно. Скачивайте фильмы в хорошем качестве, игры для пк, xbox, playstation без регистрации. У нас вы найдете новые Зарубежные сериалы и Русские сериалы 2013, 2014, 2015 годов. Оставайтесь с нами, качайте любимые фильмы, игры, сериалы, книги и музыку.