img image001 image001 image001 image001 image001 image001 image001 image001 image001 image001 image001 image001 image001 image001 image001

Planets Sun Sun Sun
Статистика раздачи
Автор: Nickolas3434 | Размер: 977.64 МБ | Добавлен: 16 ноя 2015
Раздают: 475    Качают: 21
Скачать торрент
Скачать торрент
Описание торрента

СообщениеДобавлено: 16 ноя 2015 

Страна: СССР
Производство: Азербайджанфильм
Жанр: мюзикл, боевик, мелодрама, комедия, приключения
Год выпуска: 1981
Продолжительность: 02:25:45
Перевод: Не требуется
Cубтитры: нет
Оригинальная аудиодорожка: русский
Режиссер: Юлий Гусман
В ролях:
Мухтарбек Кантемиров, Лев Дуров, Полад Бюль-Бюль оглы, Гамида Омарова, Гасанага Турабов, Мирза Бабаев, Сергей Юрский, Мухтар Маниев, Александр Шаровский, Джафар Новрузов, Насиба Зейналова, Садых Гусейнов...
Полный список актёров
Описание:
Начало XX века. Российская империя, Азербайджан.
Герои фильма, артисты цирка Рустам и Сан Саныч, приезжают на родину Рустама. Втянутые, помимо своей воли, в любовную историю певца Теймура и дочери Фарзали-бека Телли, они помогают им обмануть жадного отца девушки...







Источник: HDTV 1080i
Качество видео: HDTVRip
Формат видео: AVI
Видео: 576x432 (4:3), 25 fps, XviD ~ 932 kbps avg, 0.150 bit/pixel
Аудио: 48 kHz, MP3 2.0, 128 kbps
Раздача от:
Общее
Полное имя : Ne.boysya,ya.s.toboy!1981.HDTVRip-1,09_[New-team]_by_AVP_Studio.avi
Формат : AVI
Формат/Информация : Audio Video Interleave
Размер файла : 978 Мбайт
Продолжительность : 2 ч. 25 м.
Общий поток : 938 Кбит/сек
Программа кодирования : VirtualDubMod 1.5.10.3 | www.virtualdub-fr.org || (build 2550/release)
Библиотека кодирования : VirtualDubMod build 2550/release
Видео
Идентификатор : 0
Формат : MPEG-4 Visual
Профиль формата : Advanced Simple@L5
Параметр BVOP формата : 1
Параметр QPel формата : Нет
Параметр GMC формата : Без точки перехода
Параметр матрицы формата : Выборочная
Идентификатор кодека : XVID
Идентификатор кодека/Подсказка : XviD
Продолжительность : 2 ч. 25 м.
Битрейт : 932 Кбит/сек
Ширина : 576 пикселей
Высота : 432 пикселя
Соотношение сторон : 4:3
Частота кадров : 25,000 кадров/сек
Цветовое пространство : YUV
Субдискретизация насыщенности : 4:2:0
Битовая глубина : 8 бит
Тип развёртки : Прогрессивная
Метод сжатия : С потерями
Бит/(Пиксели*Кадры) : 0.150
Размер потока : 972 Мбайт (99%)
Библиотека кодирования : XviD 73
Аудио
Идентификатор : 1
Формат : MPEG Audio
Версия формата : Version 1
Профиль формата : Layer 3
Идентификатор кодека : 55
Идентификатор кодека/Подсказка : MP3
Продолжительность : 47 с.
Вид битрейта : Постоянный
Битрейт : 128 Кбит/сек
Каналы : 2 канала
Частота : 48,0 КГц
Метод сжатия : С потерями
Размер потока : 744 Кбайт (0%)
Выравнивание : Соединение по промежуткам
Продолжительность промежутка : 7417 мс. (185,42 видеокадров)
Время предзагрузки промежутка : 504 мс





   Похожие торренты   Торрент   Размер 
В этой теме нет новых непрочитанных сообщений. Не бойся, я с тобой! (1981) HDTVRip-AVC от New-Team

602 | 61

2.18 ГБ

В этой теме нет новых непрочитанных сообщений. Не бойся, я с тобой! (1981) HDTVRip от New-Team

99 | 23

2.18 ГБ

В этой теме нет новых непрочитанных сообщений. Не бойся, я с тобой! (1981) DVDRip-AVC от New-Team

18 | 5

2.19 ГБ

В этой теме нет новых непрочитанных сообщений. Не бойся, я с тобой! (1981) DVDRip от New-Team

40 | 3

2.19 ГБ

В этой теме нет новых непрочитанных сообщений. Не бойся, я с тобой! (1981) DVDRip от New-Team

161 | 24

1.46 ГБ

В этой теме нет новых непрочитанных сообщений. Не бойся, я с тобой! (1981) HDTVRip

63 | 4

1.45 ГБ

В этой теме нет новых непрочитанных сообщений. Не бойся, я с тобой! (1981) DVDRip

0 | 2

2.1 ГБ




Вы не можете начинать темы
Вы не можете отвечать на сообщения
Вы не можете редактировать свои сообщения
Вы не можете удалять свои сообщения
Вы не можете добавлять вложения

Перейти:  
Для Мосгорсуда, Роскомнадзора и рекламодателей: mosgorsud-torrent[собачка]yandex.ru
 Вход
ppkBB3cker v.2 © 2008-2014 @ PPK
[ Time : 0.529s | 16 Queries | GZIP : Off ]

Торрент трекер RUTOR.IN, Не можете зайти на rutor.org? Какой новый адрес рутор? Какое зеркало рутор? Не работает rutor.org и зеркала? Тогда наш торрент специально для вас. Rutor.in неофициальное зеркало rutor. В случае если у Вас заблокирован rutor или вдруг Вы не можете на него зайти, то Вы без труда сможете скачать бесплатно и без рекламы последние новинки кино, игр, сериалов и прочего у нас, на Rutor.in. Не нужно использовать прокси, чтобы зайти на рутор, достаточно воспользоваться нашим ресурсом. Все новые фильмы, игры, сериалы, книги и музыка за 2013 и 2014 годы через торрент бесплатно. Скачивайте фильмы в хорошем качестве, игры для пк, xbox, playstation без регистрации. У нас вы найдете новые Зарубежные сериалы и Русские сериалы 2013, 2014, 2015 годов. Оставайтесь с нами, качайте любимые фильмы, игры, сериалы, книги и музыку.