img image001 image001 image001 image001 image001 image001 image001 image001 image001 image001 image001 image001 image001 image001 image001

Planets Sun Sun Sun
Статистика раздачи
Автор: Nickolas3434 | Размер: 1.46 ГБ | Добавлен: 16 ноя 2015
Раздают: 461    Качают: 46
Скачать торрент
Скачать торрент
Описание торрента

СообщениеДобавлено: 16 ноя 2015 

Год выпуска: 1969
Страна: СССР
Студии: ЭТО ("Мосфильм", "Ленфильм")
Жанр: боевик, драма, мелодрама, комедия, приключения, военный
Продолжительность: 01:23:32
Субтитры: русский
Режиссер: Владимир Мотыль
В ролях:
Анатолий Кузнецов, Павел Луспекаев, Спартак Мишулин, Кахи Кавсадзе, Раиса Куркина, Николай Годовиков, Татьяна Федотова, Муса Дудаев, Николай Бадьев, Владимир Кадочников, Галина Лучай, Алла Лименес, Татьяна Кричевская, Яков Ленц, Татьяна Ткач, Александр Массарский, Игорь Милонов, Лидия Смирнова, Светлана Сливинская, Зинаида Рахматова, Татьяна Денисова, Велта Деглав, Ираклий Нижарадзе, Яков Базелян, Галина Дашевская, Галина Умпелева, Надежда Румянцева (голос Гюльчатай)...
Полный список актёров
Описание:
Двадцатые годы прошлого века, Туркестан, гражданская война. "Классовые сражения на сегодняшний день в общем и целом завершены", и красноармеец Закаспийского интернационального революционного пролетарского имени товарища Августа Бебеля полка Федор Сухов возвращается на родину, к любезной жене Катерине Матвеевне. Он идет домой пешком через пустыню, направляясь к берегу Каспийского моря и по пути сочиняя письма жене. В дороге приключаются с Суховым разные истории: то местному аборигену Саиду надо помочь - выкопать из раскаленного песка, куда его бандит Джавдет по уши закопал, то взять на себя руководство гаремом некоего Черного Абдуллы, за бандой которого гоняется по пескам красный командир Рахимов. Абдулла решил уйти за границу, а гарем пустить в расход. Рахимов гарем отбил, Абдуллу упустил. Чтобы поймать Абдуллу, надо освободиться от забот о гареме. И Рахимов спихивает барышень на Сухова: тот должен довести женщин в целости и сохранности до Педжента...






Исходник: BDRemux
Тип релиза:BDRip-AVC
Контейнер: MKV
Видео: 784x576 (4:3), 23,976 fps, H264 ~ 2051 kbps avg, 0.189 bit/pixel
Аудио: 48 kHz, Dolby Digital AC3, 5.1 ch, 448.00 kbps
Оригинальная навигация по главам: есть
Раздача от:
Общее
Полное имя : Beloe.solntse.pustyni.1969.BDRip-AVC_[New-team]_by_AVP_Studio.mkv
Формат : Matroska
Версия формата : Version 4 / Version 2
Размер файла : 1,46 Гбайт
Продолжительность : 1 ч. 23 м.
Общий поток : 2501 Кбит/сек
Название фильма : Beloe.solntse.pustyni.1969.BDRip-AVC_[New-team]_by_AVP_Studio
Дата кодирования : UTC 2015-11-14 10:32:22
Программа кодирования : mkvmerge v8.5.2 ('Crosses') 64bit
Библиотека кодирования : libebml v1.3.3 + libmatroska v1.4.4
Attachements : cover.jpg
DURATION : 01:22:36.624000000
NUMBER_OF_FRAMES : 578
NUMBER_OF_BYTES : 29640
_STATISTICS_WRITING_APP : mkvmerge v8.5.2 ('Crosses') 64bit
_STATISTICS_WRITING_DATE_UTC : 2015-11-14 10:32:22
_STATISTICS_TAGS : BPS DURATION NUMBER_OF_FRAMES NUMBER_OF_BYTES
Видео
Идентификатор : 1
Формат : AVC
Формат/Информация : Advanced Video Codec
Профиль формата : High@L4.1
Параметр CABAC формата : Да
Параметр ReFrames формата : 10 кадров
Идентификатор кодека : V_MPEG4/ISO/AVC
Продолжительность : 1 ч. 23 м.
Битрейт : 2051 Кбит/сек
Ширина : 784 пикселя
Высота : 576 пикселей
Соотношение сторон : 4:3
Соотношение сторон в оригинале : 4:3
Режим частоты кадров : Постоянный
Частота кадров : 23,976 кадра/сек
Цветовое пространство : YUV
Субдискретизация насыщенности : 4:2:0
Битовая глубина : 8 бит
Тип развёртки : Прогрессивная
Бит/(Пиксели*Кадры) : 0.189
Размер потока : 1,17 Гбайт (80%)
Заголовок : Источник BDRemux
Библиотека кодирования : x264 core 148 r2597 e86f3a1
Настройки программы : cabac=1 / ref=10 / deblock=1:-3:-2 / analyse=0x3:0x113 / me=umh / subme=10 / psy=1 / psy_rd=1.00:0.00 / mixed_ref=1 / me_range=32 / chroma_me=1 / trellis=2 / 8x8dct=1 / cqm=0 / deadzone=21,11 / fast_pskip=1 / chroma_qp_offset=-2 / threads=6 / lookahead_threads=1 / sliced_threads=0 / nr=0 / decimate=0 / interlaced=0 / bluray_compat=0 / constrained_intra=0 / bframes=8 / b_pyramid=2 / b_adapt=2 / b_bias=0 / direct=3 / weightb=1 / open_gop=0 / weightp=2 / keyint=240 / keyint_min=24 / scenecut=40 / intra_refresh=0 / rc_lookahead=40 / rc=2pass / mbtree=1 / bitrate=2051 / ratetol=1.0 / qcomp=0.60 / qpmin=0 / qpmax=69 / qpstep=4 / cplxblur=20.0 / qblur=0.5 / ip_ratio=1.40 / aq=1:1.00
Язык : Russian
Default : Да
Forced : Нет
Аудио
Идентификатор : 2
Формат : AC-3
Формат/Информация : Audio Coding 3
Расширение режима : CM (complete main)
Параметр Endianness формата : Big
Идентификатор кодека : A_AC3
Продолжительность : 1 ч. 23 м.
Вид битрейта : Постоянный
Битрейт : 448 Кбит/сек
Каналы : 6 каналов
Расположение каналов : Front: L C R, Side: L R, LFE
Частота : 48,0 КГц
Метод сжатия : С потерями
Размер потока : 268 Мбайт (18%)
Заголовок : Источник BDRemux
Язык : Russian
Default : Да
Forced : Нет
Текст
Идентификатор : 3
Формат : UTF-8
Идентификатор кодека : S_TEXT/UTF8
Идентификатор кодека/Информация : UTF-8 Plain Text
Заголовок : Источник BDRemux
Язык : Russian
Default : Нет
Forced : Нет
Меню
00:00:00.000 : :Chapter 01
00:07:01.879 : :Chapter 02
00:15:34.099 : :Chapter 03
00:24:16.705 : :Chapter 04
00:32:32.700 : :Chapter 05
00:41:02.710 : :Chapter 06
00:44:27.539 : :Chapter 07
00:50:30.569 : :Chapter 08
00:55:03.216 : :Chapter 09
01:00:54.609 : :Chapter 10
01:07:45.686 : :Chapter 11
01:15:21.808 : :Chapter 12
01:23:31.631 : :Chapter 13





   Похожие торренты   Торрент   Размер 
В этой теме нет новых непрочитанных сообщений. Белое солнце пустыни (1969) BDRip от New-Team

271 | 19

1.46 ГБ

В этой теме нет новых непрочитанных сообщений. Белое солнце пустыни (1969) BDRip от New-Team

61 | 19

744.55 МБ

В этой теме нет новых непрочитанных сообщений. Белое солнце пустыни (1969) BDRip 1080p от New-Team

510 | 79

6.57 ГБ

В этой теме нет новых непрочитанных сообщений. Белое солнце пустыни (1969) BDRip

63 | 18

1.48 ГБ

В этой теме нет новых непрочитанных сообщений. Белое солнце пустыни (1969) BDRip-AVC

76 | 10

1.45 ГБ

В этой теме нет новых непрочитанных сообщений. Белое солнце пустыни (1969) BDRip от HQCLUB

192 | 11

1.45 ГБ

В этой теме нет новых непрочитанных сообщений. Белое солнце пустыни (1969) BDRip-AVC от MediaClub

45 | 9

2.07 ГБ




Вы не можете начинать темы
Вы не можете отвечать на сообщения
Вы не можете редактировать свои сообщения
Вы не можете удалять свои сообщения
Вы не можете добавлять вложения

Перейти:  
Для Мосгорсуда, Роскомнадзора и рекламодателей: mosgorsud-torrent[собачка]yandex.ru
 Вход
ppkBB3cker v.2 © 2008-2014 @ PPK
[ Time : 3.811s | 15 Queries | GZIP : Off ]

Торрент трекер RUTOR.IN, Не можете зайти на rutor.org? Какой новый адрес рутор? Какое зеркало рутор? Не работает rutor.org и зеркала? Тогда наш торрент специально для вас. Rutor.in неофициальное зеркало rutor. В случае если у Вас заблокирован rutor или вдруг Вы не можете на него зайти, то Вы без труда сможете скачать бесплатно и без рекламы последние новинки кино, игр, сериалов и прочего у нас, на Rutor.in. Не нужно использовать прокси, чтобы зайти на рутор, достаточно воспользоваться нашим ресурсом. Все новые фильмы, игры, сериалы, книги и музыка за 2013 и 2014 годы через торрент бесплатно. Скачивайте фильмы в хорошем качестве, игры для пк, xbox, playstation без регистрации. У нас вы найдете новые Зарубежные сериалы и Русские сериалы 2013, 2014, 2015 годов. Оставайтесь с нами, качайте любимые фильмы, игры, сериалы, книги и музыку.