img image001 image001 image001 image001 image001 image001 image001 image001 image001 image001 image001 image001 image001 image001 image001

Planets Sun Sun Sun
Статистика раздачи
Автор: Nickolas3434 | Размер: 745.19 МБ | Добавлен: 17 ноя 2015
Раздают: 162    Качают: 30
Скачать торрент
Скачать торрент
Описание торрента

СообщениеДобавлено: 17 ноя 2015 


Информация о фильме
Название: Чужое лицо
Год выхода: 2015
Жанр: Мелодрама
Режиссер: Алексей Карелин
В ролях: Полина Стрельникова (Сыркина), Александр Лымарев, Марина Денисова, Игорь Денисов, Светлана Кожемякина, Александр Гиренок, Ольга Скворцова, Василий Бойдак, Александр Павлов
О фильме:
Главная героиня Мария — провинциальная актриса, мечтающая о большой сцене. Но на руках у Маши больной брат и нет возможности строить карьеру. Однажды она получает весьма странное предложение. Маша должна сыграть роль другого человека, но не в кино, и не в театре, а в жизни! За большие деньги, которые ей заплатят за исполнение этой роли, Маша должна будет примерить на себя чужое лицо в буквальном смысле — сделать пластическую операцию, чтобы стать похожей на погибшую женщину. Маша, не задумываясь о последствиях, принимает предложение.

Страна: Россия
Студия: Паламеда продакшн, Продюсерский центр "Фабула"
Продолжительность: 01:30:08
Перевод: Не требуется
Файл
Кодек: XviD
Качество: HDTVRip
Видео: 624x352 (1.77:1), 25 fps, XviD build 73 ~1018 kbps avg, 0.19 bit/pixel
Звук: 48 kHz, MPEG Layer 3, 2 ch, ~128.00 kbps avg
Субтитры: Отсутствуют
Семпл
General
Complete name : E:Изготовление риповChuzhoe.lico.2015.HDTVRip by shkiper.avi
Format : AVI
Format/Info : Audio Video Interleave
File size : 745 MiB
Duration : 1h 30mn
Overall bit rate : 1 156 Kbps
Writing application : VirtualDubMod 1.5.10.3 | www.virtualdub-fr.org || (build 2550/release)
Writing library : VirtualDubMod build 2550/release
Video
ID : 0
Format : MPEG-4 Visual
Format profile : Advanced Simple@L5
Format settings, BVOP : 1
Format settings, QPel : No
Format settings, GMC : No warppoints
Format settings, Matrix : Custom
Codec ID : XVID
Codec ID/Hint : XviD
Duration : 1h 30mn
Bit rate : 1 018 Kbps
Width : 624 pixels
Height : 352 pixels
Display aspect ratio : 16:9
Frame rate : 25.000 fps
Color space : YUV
Chroma subsampling : 4:2:0
Bit depth : 8 bits
Scan type : Progressive
Compression mode : Lossy
Bits/(Pixel*Frame) : 0.185
Stream size : 656 MiB (88%)
Writing library : XviD 73
Audio
ID : 1
Format : MPEG Audio
Format version : Version 1
Format profile : Layer 3
Mode : Joint stereo
Mode extension : MS Stereo
Codec ID : 55
Codec ID/Hint : MP3
Duration : 1h 30mn
Bit rate mode : Constant
Bit rate : 128 Kbps
Channel(s) : 2 channels
Sampling rate : 48.0 KHz
Compression mode : Lossy
Stream size : 82.5 MiB (11%)
Alignment : Aligned on interleaves
Interleave, duration : 40 ms (1.00 video frame)
Interleave, preload duratio : 504 ms
Writing library : LAME3.99r
Encoding settings : -m j -V 4 -q 2 -lowpass 17 -b 128

Релиз от:



   Похожие торренты   Торрент   Размер 
В этой теме нет новых непрочитанных сообщений. Чужое лицо (2015) HDTVRip от Files-x

1212 | 63

1.37 ГБ

В этой теме нет новых непрочитанных сообщений. Чужое лицо (2015) HDTVRip-AVC от Files-x

990 | 160

1.37 ГБ

В этой теме нет новых непрочитанных сообщений. Чужое лицо (2015) HDTVRip 720p от MediaClub

167 | 12

2.43 ГБ

В этой теме нет новых непрочитанных сообщений. Чужое лицо [01-08 из 20] (2017) HDTVRip-AVC от Files-x

0 | 0

6.08 ГБ

В этой теме нет новых непрочитанных сообщений. Чужое лицо [01-08 из 20] (2017) HDTVRip-AVC от Files-x

0 | 0

15.3 ГБ

В этой теме нет новых непрочитанных сообщений. Чужое лицо [01-08 из 20] (2017) HDTVRip-AVC от Files-x

0 | 0

13.79 ГБ

В этой теме нет новых непрочитанных сообщений. Чужое лицо (2013) HDTVRip от MediaClub | КПК

191 | 12

412.42 МБ




Вы не можете начинать темы
Вы не можете отвечать на сообщения
Вы не можете редактировать свои сообщения
Вы не можете удалять свои сообщения
Вы не можете добавлять вложения

Перейти:  
Для Мосгорсуда, Роскомнадзора и рекламодателей: mosgorsud-torrent[собачка]yandex.ru
 Вход
ppkBB3cker v.2 © 2008-2014 @ PPK
[ Time : 0.039s | 15 Queries | GZIP : Off ]

cron