img image001 image001 image001 image001 image001 image001 image001 image001 image001 image001 image001 image001 image001 image001 image001

Planets Sun Sun Sun
Статистика раздачи
Автор: Nickolas3434 | Размер: 744.19 МБ | Добавлен: 18 ноя 2015
Раздают: 80    Качают: 47
Скачать торрент
Скачать торрент
Описание торрента

СообщениеДобавлено: 18 ноя 2015 


Информация о фильме
Название: Самая обаятельная и привлекательная
Год выхода: 1985
Жанр: Лирическая комедия
Режиссер: Геральд Бежанов
В ролях: Ирина Муравьёва, Татьяна Васильева, Александр Абдулов, Леонид Куравлёв, Михаил Кокшенов, Людмила Иванова, Лариса Удовиченко, Владимир Носик, Александр Ширвиндт, Лев Перфилов, Любовь Соколова, Вероника Изотова, Виктор Ильичёв, Гурам Абесадзе, Виктор Филиппов, Людмила Карауш, Георгий Мартиросян, Владимир Мышкин, Яков Саркисов, Вера Сотникова, Игорь Ясулович, Екатерина Куравлева, Геральд Бежанов, Анатолий Эйрамджан
О фильме:
Инженер Надя Клюева работала в конструкторском бюро и была активной комсомолкой: собирала деньги на похороны тещи сотрудника по заданию месткома , как член добровольной народной дружины, ходила патрулировать порядок на улицах в свободное от работы время, дотошно снимала показания с испытываемого прибора. Единственное, что как будто не интересовало Надю – это ее личная жизнь. Природа не наградила ее яркой внешностью, она давно привыкла к тому, что мужчины считают ее « своим парнем » и не воспринимают как женщину, одевалась чисто, опрятно, но не модно... И так бы наверное все и продолжалось, если бы она не встретила случайно свою школьную подругу Сусанну. Сусанна в школе тоже не была красавицей, но сейчас перед Надей была женщина, блистательная во всех отношениях. « Наука мне помогла, социология », - объяснила Сусанна подруге перемены в своем облике и взялась сделать из Нади такую же «самую обаятельную и привлекательную» женщину...

Страна: СССР
Студия: Мосфильм
Продолжительность: 01:18:19
Перевод: Не требуется
Файл
Кодек: XviD
Качество: HDTVRip Источник рипа
Видео: 640x272 (2.35:1), 25 fps, XviD build 73 ~1190 kbps avg, 0.27 bit/pixel
Звук: 48 kHz, MPEG Layer 3, 2 ch, ~128.00 kbps avg
Субтитры: Отсутствует
Семпл
General
Complete name : E:Изготовление риповСамая обаятельная и привлекательная_1985-HDTVRip shkiper.avi
Format : AVI
Format/Info : Audio Video Interleave
File size : 744 MiB
Duration : 1h 18mn
Overall bit rate : 1 329 Kbps
Writing application : VirtualDubMod 1.5.10.3 | www.virtualdub-fr.org || (build 2550/release)
Writing library : VirtualDubMod build 2550/release
Video
ID : 0
Format : MPEG-4 Visual
Format profile : Advanced Simple@L5
Format settings, BVOP : 1
Format settings, QPel : No
Format settings, GMC : No warppoints
Format settings, Matrix : Custom
Codec ID : XVID
Codec ID/Hint : XviD
Duration : 1h 18mn
Bit rate : 1 191 Kbps
Width : 640 pixels
Height : 272 pixels
Display aspect ratio : 2.35:1
Frame rate : 25.000 fps
Color space : YUV
Chroma subsampling : 4:2:0
Bit depth : 8 bits
Scan type : Progressive
Compression mode : Lossy
Bits/(Pixel*Frame) : 0.274
Stream size : 667 MiB (90%)
Writing library : XviD 73
Audio
ID : 1
Format : MPEG Audio
Format version : Version 1
Format profile : Layer 3
Mode : Joint stereo
Mode extension : MS Stereo
Codec ID : 55
Codec ID/Hint : MP3
Duration : 1h 18mn
Bit rate mode : Constant
Bit rate : 128 Kbps
Channel(s) : 2 channels
Sampling rate : 48.0 KHz
Compression mode : Lossy
Stream size : 71.7 MiB (10%)
Alignment : Aligned on interleaves
Interleave, duration : 40 ms (1.00 video frame)
Interleave, preload duratio : 504 ms
Writing library : LAME3.99r
Encoding settings : -m j -V 4 -q 2 -lowpass 17 -b 128

Релиз от:



   Похожие торренты   Торрент   Размер 
В этой теме нет новых непрочитанных сообщений. Самая обаятельная и привлекательная (1985) HDTVRip

93 | 14

1.37 ГБ

В этой теме нет новых непрочитанных сообщений. Самая обаятельная и привлекательная (1985) HDTVRip 720р

24 | 2

2.76 ГБ

В этой теме нет новых непрочитанных сообщений. Самая обаятельная и привлекательная (1985) HDTVRip 720р от ExKinoRay

169 | 22

2.87 ГБ

В этой теме нет новых непрочитанных сообщений. Самая обаятельная и привлекательная (1985) DVDRip

82 | 24

746.03 МБ

В этой теме нет новых непрочитанных сообщений. Самая обаятельная и привлекательная (1985) DVDRip

127 | 5

1.37 ГБ

В этой теме нет новых непрочитанных сообщений. Самая обаятельная и привлекательная (1985) DVDRip | Реставрация

2122 | 67

1.45 ГБ

В этой теме нет новых непрочитанных сообщений. Самая обаятельная и привлекательная (1985) HDTV (1080i)

104 | 18

6.5 ГБ




Вы не можете начинать темы
Вы не можете отвечать на сообщения
Вы не можете редактировать свои сообщения
Вы не можете удалять свои сообщения
Вы не можете добавлять вложения

Перейти:  
Для Мосгорсуда, Роскомнадзора и рекламодателей: mosgorsud-torrent[собачка]yandex.ru
 Вход
ppkBB3cker v.2 © 2008-2014 @ PPK
[ Time : 0.048s | 16 Queries | GZIP : Off ]

Торрент трекер RUTOR.IN, Не можете зайти на rutor.org? Какой новый адрес рутор? Какое зеркало рутор? Не работает rutor.org и зеркала? Тогда наш торрент специально для вас. Rutor.in неофициальное зеркало rutor. В случае если у Вас заблокирован rutor или вдруг Вы не можете на него зайти, то Вы без труда сможете скачать бесплатно и без рекламы последние новинки кино, игр, сериалов и прочего у нас, на Rutor.in. Не нужно использовать прокси, чтобы зайти на рутор, достаточно воспользоваться нашим ресурсом. Все новые фильмы, игры, сериалы, книги и музыка за 2013 и 2014 годы через торрент бесплатно. Скачивайте фильмы в хорошем качестве, игры для пк, xbox, playstation без регистрации. У нас вы найдете новые Зарубежные сериалы и Русские сериалы 2013, 2014, 2015 годов. Оставайтесь с нами, качайте любимые фильмы, игры, сериалы, книги и музыку.
cron