img image001 image001 image001 image001 image001 image001 image001 image001 image001 image001 image001 image001 image001 image001 image001

Planets Sun Sun Sun
Статистика раздачи
Автор: Nickolas3434 | Размер: 6.7 ГБ | Добавлен: 18 ноя 2015
Раздают: 553    Качают: 35
Скачать торрент
Скачать торрент
Описание торрента

СообщениеДобавлено: 18 ноя 2015 



Информация о фильме
Название: Географ глобус пропил
Год выхода: 2013
Жанр: драма
Режиссер: Александр Велединский
В ролях: Константин Хабенский, Анфиса Черных, Елена Лядова, Александр Робак, Евгения Брик, Анна Уколова, Агриппина Стеклова, Евгения Крегжде, Максим Лагашкин, Анастасия Золотко

О фильме:
Молодой биолог Виктор Служкин от безденежья идет работать учителем географии в обычную пермскую школу. Он борется, а потом и дружит с учениками, конфликтует с завучем, ведет десятиклассников в поход — сплавляться по реке. Еще он пьет с друзьями вино, пытается ужиться с женой и водит в детский сад маленькую дочку. Он просто живет…



Страна: Россия
Студия: Красная стрела, Мармот-фильм
Продолжительность: 120 мин. / 02:00
Перевод: не требуется

Файл
Кодек: MPEG2
Качество: DVD9 "CP Дистрибуция"
Видео: PAL 16:9 (720x576@1024x576) VBR 5981 Kbps, 25.000 fps
Аудио 1: Dolby AC3, 6 ch, 48.0 KHz, 448 Кbps
Аудио 2: DTS 6 ch, 48.0 KHz, 768 Kbps
Субтитры: отсутствуют

Общее
Полное имя : D:Geograf.globus.propil.2013.DVD9VIDEO_TSVTS_04_1.VOB
Формат : MPEG-PS
Размер файла : 1024 Мбайт
Продолжительность : 19 м.
Режим общего битрейта : Переменный
Общий поток : 7330 Кбит/сек
Видео
Идентификатор : 224 (0xE0)
Формат : MPEG Video
Версия формата : Version 2
Профиль формата : Main@Main
Параметр BVOP формата : Да
Параметр матрицы формата : По умолчанию
Параметр GOP формата : M=3, N=12
Продолжительность : 19 м.
Вид битрейта : Переменный
Битрейт : 5981 Кбит/сек
Максимальный битрейт : 9500 Кбит/сек
Ширина : 720 пикселей
Высота : 576 пикселей
Соотношение сторон : 16:9
Частота кадров : 25,000 кадров/сек
Стандарт вещания : PAL
Цветовое пространство : YUV
Субдискретизация насыщенности : 4:2:0
Битовая глубина : 8 бит
Тип развёртки : Прогрессивная
Метод сжатия : С потерями
Бит/(Пиксели*Кадры) : 0.577
Временной код первого кадра : 00:00:00:00
Оригинал временного кода : Group of pictures header
GOP, открыто/закрыто : Открыто
GOP, открыто/закрыто на первом кадре : Закрыто
Размер потока : 836 Мбайт (82%)
Аудио #1
Идентификатор : 189 (0xBD)-128 (0x80)
Формат : AC-3
Формат/Информация : Audio Coding 3
Расширение режима : CM (complete main)
Параметр Endianness формата : Big
Режим смешивания : DVD-Video
Продолжительность : 19 м.
Вид битрейта : Постоянный
Битрейт : 448 Кбит/сек
Каналы : 6 каналов
Расположение каналов : Front: L C R, Side: L R, LFE
Частота : 48,0 КГц
Метод сжатия : С потерями
Размер потока : 62,6 Мбайт (6%)
Аудио #2
Идентификатор : 189 (0xBD)-137 (0x89)
Формат : DTS
Формат/Информация : Digital Theater Systems
Режим : 16
Параметр Endianness формата : Big
Режим смешивания : DVD-Video
Продолжительность : 19 м.
Вид битрейта : Постоянный
Битрейт : 755 Кбит/сек
Каналы : 6 каналов
Расположение каналов : Front: L C R, Side: L R, LFE
Частота : 48,0 КГц
Битовая глубина : 16 бит
Метод сжатия : С потерями
Размер потока : 105 Мбайт (10%)
Меню




   Похожие торренты   Торрент   Размер 
В этой теме нет новых непрочитанных сообщений. Географ глобус пропил (2013) BDRip 1080p

26 | 0

7.75 ГБ

В этой теме нет новых непрочитанных сообщений. Иванов Алексей - Географ глобус пропил (2008) MP3

152 | 13

601.97 МБ

В этой теме нет новых непрочитанных сообщений. Хрустальный глобус. Планета фермеров (2012) PC

18 | 2

172.9 МБ

В этой теме нет новых непрочитанных сообщений. Золотой глобус / Транссибирская магистраль (2011) DVD5

7 | 12

3.94 ГБ

В этой теме нет новых непрочитанных сообщений. Paper Craft - Глобус Луны (2012) JPG от RG Superdetki

7 | 6

16.83 МБ

В этой теме нет новых непрочитанных сообщений. Идеальное Рождество (Снежный глобус) / Snowglobe (2007) DVDRip

35 | 6

1.37 ГБ

В этой теме нет новых непрочитанных сообщений. Золотой глобус. Выпуск 83. Транссибирская магистраль (2011) DVDRip от KinoZalSat

19 | 6

1.36 ГБ




Вы не можете начинать темы
Вы не можете отвечать на сообщения
Вы не можете редактировать свои сообщения
Вы не можете удалять свои сообщения
Вы не можете добавлять вложения

Перейти:  
Для Мосгорсуда, Роскомнадзора и рекламодателей: mosgorsud-torrent[собачка]yandex.ru
 Вход
ppkBB3cker v.2 © 2008-2014 @ PPK
[ Time : 0.062s | 16 Queries | GZIP : Off ]

Торрент трекер RUTOR.IN, Не можете зайти на rutor.org? Какой новый адрес рутор? Какое зеркало рутор? Не работает rutor.org и зеркала? Тогда наш торрент специально для вас. Rutor.in неофициальное зеркало rutor. В случае если у Вас заблокирован rutor или вдруг Вы не можете на него зайти, то Вы без труда сможете скачать бесплатно и без рекламы последние новинки кино, игр, сериалов и прочего у нас, на Rutor.in. Не нужно использовать прокси, чтобы зайти на рутор, достаточно воспользоваться нашим ресурсом. Все новые фильмы, игры, сериалы, книги и музыка за 2013 и 2014 годы через торрент бесплатно. Скачивайте фильмы в хорошем качестве, игры для пк, xbox, playstation без регистрации. У нас вы найдете новые Зарубежные сериалы и Русские сериалы 2013, 2014, 2015 годов. Оставайтесь с нами, качайте любимые фильмы, игры, сериалы, книги и музыку.
cron