img image001 image001 image001 image001 image001 image001 image001 image001 image001 image001 image001 image001 image001 image001 image001

Planets Sun Sun Sun
Статистика раздачи
Автор: Nickolas3434 | Размер: 1.46 ГБ | Добавлен: 19 ноя 2015
Раздают: 37    Качают: 11
Скачать торрент
Скачать торрент
Описание торрента

СообщениеДобавлено: 19 ноя 2015 

Страна: СССР
Производство: К/ст им.Горького, к/ст им.Довженко
Жанр: боевик, драма, криминал
Год выпуска: 1958
Продолжительность: 02:39:45
Перевод: Не требуется
Cубтитры: нет
Оригинальная аудиодорожка: русский
Режиссер: Виктор Ивченко
В ролях:
Михаил Кузнецов, Александр Ануров, Вячеслав Тихонов, Таисия Литвиненко (II), Анатолий Соловьёв, Владимир Рудин, Павел Усовниченко, Юрий Сарычев, Павел Панёв, Гиули Чохонелидзе, Дмитрий Капка, Валентин Пархоменко, Михаил Сиренко, Витольд Янпавлис, Валерий Зиновьев (II), Вадим Кислов, Александр Толстых, Владимир Дальский, Владимир Уан-Зо-Ли, Евгений Балиев, Александр Барушной, Нонна Тен...
Полный список актёров
Описание:
В июне 1954 года в нейтральных водах близ острова Тайвань чанкайшистами был пиратски захвачен советский танкер "Туапсе". Отважные моряки мужественно проходят через все пытки азиатских тюрьм, ужасы допросов "третьей степени" и изощрённые провокации. Лишь через 13 месяцев советскому правительству удалось добиться возвращения большинства измученных неволей, но не сломленных моряков. Эти факты и стали основой фильма.
...Танкер "Полтава", следовавший с керосином в Китай, захвачен чайканшистами. При этом моторист Райский (Вячеслав Тихонов) случайно ранил одного из солдат. Танкер с экипажем был доставлен на Тайвань, где всех стали уговаривать добровольно перейти на сторону "подлинной свободы и демократии", обращаясь исключительно хорошо: поселили на роскошной вилле, поили, кормили. Когда уговоры не подействовали, в ход пустили совсем другие меры: концлагерь, лишения. Далее были героические приключения. Одни вернулись на Родину через несколько месяцев, другие только через годы, а некоторые не вернулись вовсе.
Сюжет фильма держит зрителя в напряжении от первого до последнего кадра. Редкую для себя характерную роль сыграл Вячкеслав Тихонов -
озорного и веселого парня из Одессы. Рассказ ведется от лица замполита экипажа в исполнении Михаила Кузнецова.





Источник: DVD9 R5
Качество видео: DVDRip
Формат видео: AVI
Видео: 640x480 (4:3), 25 fps, XviD ~ 1171 kbps avg, 0.152 bit/pixel
Аудио: 48 kHz, MP3 2.0, 128 kbps
Раздача от:
Общее
Полное имя : ChP–Chrezvychaynoe.proisshestvie.1958.DVDRip-1,46_[New-team]_by_AVP_Studio.avi
Формат : AVI
Формат/Информация : Audio Video Interleave
Размер файла : 1,46 Гбайт
Продолжительность : 2 ч. 39 м.
Общий поток : 1309 Кбит/сек
Программа кодирования : VirtualDubMod 1.5.10.3 | www.virtualdub-fr.org || (build 2550/release)
Библиотека кодирования : VirtualDubMod build 2550/release
Видео
Идентификатор : 0
Формат : MPEG-4 Visual
Профиль формата : Advanced Simple@L5
Параметр BVOP формата : 1
Параметр QPel формата : Нет
Параметр GMC формата : Без точки перехода
Параметр матрицы формата : Выборочная
Идентификатор кодека : XVID
Идентификатор кодека/Подсказка : XviD
Продолжительность : 2 ч. 39 м.
Битрейт : 1171 Кбит/сек
Ширина : 640 пикселей
Высота : 480 пикселей
Соотношение сторон : 4:3
Частота кадров : 25,000 кадров/сек
Цветовое пространство : YUV
Субдискретизация насыщенности : 4:2:0
Битовая глубина : 8 бит
Тип развёртки : Прогрессивная
Метод сжатия : С потерями
Бит/(Пиксели*Кадры) : 0.152
Размер потока : 1,31 Гбайт (89%)
Библиотека кодирования : XviD 73
Аудио
Идентификатор : 1
Формат : MPEG Audio
Версия формата : Version 1
Профиль формата : Layer 3
Идентификатор кодека : 55
Идентификатор кодека/Подсказка : MP3
Продолжительность : 2 ч. 39 м.
Вид битрейта : Постоянный
Битрейт : 128 Кбит/сек
Каналы : 2 канала
Частота : 48,0 КГц
Метод сжатия : С потерями
Размер потока : 146 Мбайт (10%)
Выравнивание : Соединение по промежуткам
Продолжительность промежутка : 40 мс. (1,00 видеокадр)
Время предзагрузки промежутка : 504 мс.
Библиотека кодирования : LAME3.99r
Настройки программы : -m s -V 4 -q 2 -lowpass 17 -b 128





   Похожие торренты   Торрент   Размер 
В этой теме нет новых непрочитанных сообщений. ЧП – Чрезвычайное происшествие (1958) DVDRip-AVC от New-Team

66 | 20

2.18 ГБ

В этой теме нет новых непрочитанных сообщений. ЧП – Чрезвычайное происшествие (1958) DVDRip от New-Team

46 | 15

2.18 ГБ

В этой теме нет новых непрочитанных сообщений. ЧП - Чрезвычайное происшествие [01-02 из 02] (1958) DVDRip

166 | 9

2.15 ГБ

В этой теме нет новых непрочитанных сообщений. Чрезвычайное происшествие [эфир от 28.04] (2014) SATRip

36 | 16

438.23 МБ

В этой теме нет новых непрочитанных сообщений. Чрезвычайное происшествие [эфир от 26.06.2012] SATRip

1 | 1

323.53 МБ

В этой теме нет новых непрочитанных сообщений. Чрезвычайное происшествие [эфир от 26.03.2014] SATRip

55 | 23

445.33 МБ

В этой теме нет новых непрочитанных сообщений. Чрезвычайное происшествие [эфир от 27.03.2014] SATRip

26 | 4

449.85 МБ




Вы не можете начинать темы
Вы не можете отвечать на сообщения
Вы не можете редактировать свои сообщения
Вы не можете удалять свои сообщения
Вы не можете добавлять вложения

Перейти:  
Для Мосгорсуда, Роскомнадзора и рекламодателей: mosgorsud-torrent[собачка]yandex.ru
 Вход
ppkBB3cker v.2 © 2008-2014 @ PPK
[ Time : 0.022s | 15 Queries | GZIP : Off ]

Торрент трекер RUTOR.IN, Не можете зайти на rutor.org? Какой новый адрес рутор? Какое зеркало рутор? Не работает rutor.org и зеркала? Тогда наш торрент специально для вас. Rutor.in неофициальное зеркало rutor. В случае если у Вас заблокирован rutor или вдруг Вы не можете на него зайти, то Вы без труда сможете скачать бесплатно и без рекламы последние новинки кино, игр, сериалов и прочего у нас, на Rutor.in. Не нужно использовать прокси, чтобы зайти на рутор, достаточно воспользоваться нашим ресурсом. Все новые фильмы, игры, сериалы, книги и музыка за 2013 и 2014 годы через торрент бесплатно. Скачивайте фильмы в хорошем качестве, игры для пк, xbox, playstation без регистрации. У нас вы найдете новые Зарубежные сериалы и Русские сериалы 2013, 2014, 2015 годов. Оставайтесь с нами, качайте любимые фильмы, игры, сериалы, книги и музыку.