img image001 image001 image001 image001 image001 image001 image001 image001 image001 image001 image001 image001 image001 image001 image001

Planets Sun Sun Sun
Статистика раздачи
Автор: Nickolas3434 | Размер: 2.18 ГБ | Добавлен: 19 ноя 2015
Раздают: 20    Качают: 3
Скачать торрент
Скачать торрент
Описание торрента

СообщениеДобавлено: 19 ноя 2015 

Страна: СССР
Производство: К/ст им.Горького, к/ст им.Довженко
Жанр: боевик, драма, криминал
Год выпуска: 1958
Продолжительность: 02:39:45
Перевод: Не требуется
Cубтитры: нет
Оригинальная аудиодорожка: русский
Режиссер: Виктор Ивченко
В ролях:
Михаил Кузнецов, Александр Ануров, Вячеслав Тихонов, Таисия Литвиненко (II), Анатолий Соловьёв, Владимир Рудин, Павел Усовниченко, Юрий Сарычев, Павел Панёв, Гиули Чохонелидзе, Дмитрий Капка, Валентин Пархоменко, Михаил Сиренко, Витольд Янпавлис, Валерий Зиновьев (II), Вадим Кислов, Александр Толстых, Владимир Дальский, Владимир Уан-Зо-Ли, Евгений Балиев, Александр Барушной, Нонна Тен...
Полный список актёров
Описание:
В июне 1954 года в нейтральных водах близ острова Тайвань чанкайшистами был пиратски захвачен советский танкер "Туапсе". Отважные моряки мужественно проходят через все пытки азиатских тюрьм, ужасы допросов "третьей степени" и изощрённые провокации. Лишь через 13 месяцев советскому правительству удалось добиться возвращения большинства измученных неволей, но не сломленных моряков. Эти факты и стали основой фильма.
...Танкер "Полтава", следовавший с керосином в Китай, захвачен чайканшистами. При этом моторист Райский (Вячеслав Тихонов) случайно ранил одного из солдат. Танкер с экипажем был доставлен на Тайвань, где всех стали уговаривать добровольно перейти на сторону "подлинной свободы и демократии", обращаясь исключительно хорошо: поселили на роскошной вилле, поили, кормили. Когда уговоры не подействовали, в ход пустили совсем другие меры: концлагерь, лишения. Далее были героические приключения. Одни вернулись на Родину через несколько месяцев, другие только через годы, а некоторые не вернулись вовсе.
Сюжет фильма держит зрителя в напряжении от первого до последнего кадра. Редкую для себя характерную роль сыграл Вячкеслав Тихонов -
озорного и веселого парня из Одессы. Рассказ ведется от лица замполита экипажа в исполнении Михаила Кузнецова.






Источник: DVD9 R5
Качество видео: DVDRip-AVC
Формат видео: MKV
Видео: 696->762x572 (4:3), 25 fps, H264 ~ 1566 kbps avg, 0.157 bit/pixel
Аудио: 48 kHz, Dolby Digital AC3 5.1, 384 kbps
Раздача от:
Общее
Полное имя : ChP–Chrezvychaynoe.proisshestvie.1958.DVDRip-AVC_[New-team]_by_AVP_Studio.mkv
Формат : Matroska
Версия формата : Version 2
Размер файла : 2,18 Гбайт
Продолжительность : 2 ч. 39 м.
Общий поток : 1952 Кбит/сек
Дата кодирования : UTC 2015-11-17 16:59:23
Программа кодирования : mkvmerge v6.1.0 ('Old Devil') built on Mar 4 2013 09:10:42
Библиотека кодирования : libebml v1.3.0 + libmatroska v1.4.0
Видео
Идентификатор : 1
Формат : AVC
Формат/Информация : Advanced Video Codec
Профиль формата : High@L4.1
Параметр CABAC формата : Да
Параметр ReFrames формата : 10 кадров
Идентификатор кодека : V_MPEG4/ISO/AVC
Продолжительность : 2 ч. 39 м.
Битрейт : 1566 Кбит/сек
Ширина : 696 пикселей
Высота : 572 пикселя
Соотношение сторон : 4:3
Режим частоты кадров : Постоянный
Частота кадров : 25,000 кадров/сек
Цветовое пространство : YUV
Субдискретизация насыщенности : 4:2:0
Битовая глубина : 8 бит
Тип развёртки : Прогрессивная
Бит/(Пиксели*Кадры) : 0.157
Размер потока : 1,71 Гбайт (78%)
Библиотека кодирования : x264 core 148 r2597 e86f3a1
Настройки программы : cabac=1 / ref=10 / deblock=1:-2:-1 / analyse=0x3:0x113 / me=umh / subme=10 / psy=1 / psy_rd=1.00:0.00 / mixed_ref=1 / me_range=32 / chroma_me=1 / trellis=2 / 8x8dct=1 / cqm=0 / deadzone=21,11 / fast_pskip=1 / chroma_qp_offset=-2 / threads=6 / lookahead_threads=1 / sliced_threads=0 / nr=0 / decimate=0 / interlaced=0 / bluray_compat=0 / constrained_intra=0 / bframes=8 / b_pyramid=2 / b_adapt=2 / b_bias=0 / direct=3 / weightb=1 / open_gop=0 / weightp=2 / keyint=250 / keyint_min=25 / scenecut=40 / intra_refresh=0 / rc=2pass / mbtree=0 / bitrate=1566 / ratetol=1.0 / qcomp=0.60 / qpmin=0 / qpmax=69 / qpstep=4 / cplxblur=20.0 / qblur=0.5 / ip_ratio=1.40 / pb_ratio=1.30 / aq=1:1.00
Default : Да
Forced : Нет
Аудио
Идентификатор : 2
Формат : AC-3
Формат/Информация : Audio Coding 3
Расширение режима : CM (complete main)
Параметр Endianness формата : Big
Идентификатор кодека : A_AC3
Продолжительность : 2 ч. 39 м.
Вид битрейта : Постоянный
Битрейт : 384 Кбит/сек
Каналы : 6 каналов
Расположение каналов : Front: L C R, Side: L R, LFE
Частота : 48,0 КГц
Метод сжатия : С потерями
Размер потока : 439 Мбайт (20%)
Default : Да
Forced : Нет





   Похожие торренты   Торрент   Размер 
В этой теме нет новых непрочитанных сообщений. ЧП – Чрезвычайное происшествие (1958) DVDRip от New-Team

34 | 3

2.18 ГБ

В этой теме нет новых непрочитанных сообщений. ЧП – Чрезвычайное происшествие (1958) DVDRip от New-Team

37 | 11

1.46 ГБ

В этой теме нет новых непрочитанных сообщений. ЧП - Чрезвычайное происшествие [01-02 из 02] (1958) DVDRip

166 | 9

2.15 ГБ

В этой теме нет новых непрочитанных сообщений. Чрезвычайное происшествие [эфир от 27.03.2014] SATRip

26 | 4

449.85 МБ

В этой теме нет новых непрочитанных сообщений. Чрезвычайное происшествие [эфир от 26.06.2012] SATRip

1 | 1

323.53 МБ

В этой теме нет новых непрочитанных сообщений. Чрезвычайное происшествие [эфир от 26.03.2014] SATRip

55 | 23

445.33 МБ

В этой теме нет новых непрочитанных сообщений. Чрезвычайное происшествие [эфир от 28.04] (2014) SATRip

36 | 16

438.23 МБ




Вы не можете начинать темы
Вы не можете отвечать на сообщения
Вы не можете редактировать свои сообщения
Вы не можете удалять свои сообщения
Вы не можете добавлять вложения

Перейти:  
Для Мосгорсуда, Роскомнадзора и рекламодателей: mosgorsud-torrent[собачка]yandex.ru
 Вход
ppkBB3cker v.2 © 2008-2014 @ PPK
[ Time : 0.030s | 15 Queries | GZIP : Off ]

Торрент трекер RUTOR.IN, Не можете зайти на rutor.org? Какой новый адрес рутор? Какое зеркало рутор? Не работает rutor.org и зеркала? Тогда наш торрент специально для вас. Rutor.in неофициальное зеркало rutor. В случае если у Вас заблокирован rutor или вдруг Вы не можете на него зайти, то Вы без труда сможете скачать бесплатно и без рекламы последние новинки кино, игр, сериалов и прочего у нас, на Rutor.in. Не нужно использовать прокси, чтобы зайти на рутор, достаточно воспользоваться нашим ресурсом. Все новые фильмы, игры, сериалы, книги и музыка за 2013 и 2014 годы через торрент бесплатно. Скачивайте фильмы в хорошем качестве, игры для пк, xbox, playstation без регистрации. У нас вы найдете новые Зарубежные сериалы и Русские сериалы 2013, 2014, 2015 годов. Оставайтесь с нами, качайте любимые фильмы, игры, сериалы, книги и музыку.