img image001 image001 image001 image001 image001 image001 image001 image001 image001 image001 image001 image001 image001 image001 image001

Planets Sun Sun Sun
Статистика раздачи
Автор: Nickolas3434 | Размер: 744.69 МБ | Добавлен: 19 ноя 2015, 18:14
Раздают: 70    Качают: 18
Скачать торрент
Скачать торрент
Описание торрента

СообщениеДобавлено: 19 ноя 2015, 18:14 


Информация о фильме
Название: Год хорошего ребенка
Год выхода: 1991
Жанр: Детский, семейный, комедия
Режиссер: Б. Конунов
В ролях: Александр Лойе, Лев Дуров, Анастасия Лаур, Валентина Талызина, Наталья Данилова, Виктор Борцов, Расми Джабраилов, Семен Фарада, Владимир Литвинов, Лембит Ульфсак, Анна Твеленева, Георгий Тейх, Альфред Шаргородский, Ирина Кравкина
О фильме:
По мотивам одноименного романа Эдуарда Успенского и Элс Де Грун. Рома Рогов был мальчиком талантливым и одаренным, что заметно уже на 4-й минуте фильма (взорвал учителя). Девочка из Германии по имени Рози запросто чинит папин мотороллер. Такие выдающиеся дети посылаются на Международный фестиваль гениальных детей в честь Года Хорошего ребенка. Преступники решили похитить наследного принца богатого королевства, но по ошибке достался им Ромочка Рогов, уже известный нам подрывник...
На международном фестивале гениальных детей мира, объявленном в честь года "Хорошего ребенка", похищен мальчик из России. Преступники по нелепой случайности приняли его за наследного принца боготого королевства, не зная, что схватка с детьми заранее обречена на провал...

Страна: СССР, Германия
Студия: Госкино, Эхо, Ecou Films
Продолжительность: 01:23:54
Перевод: Не требуется
Файл
Кодек: XviD
Качество: VHSRip
Видео: 592x368 (1.61:1), 25 fps, XviD build 73 ~1103 kbps avg, 0.20 bit/pixel
Звук: 44.100 kHz, MPEG Layer 3, 2 ch, ~128.00 kbps avg
Субтитры: Отсутствует
Семпл
General
Complete name : E:Изготовление риповGod_horoshego_rebyonka by shkiper.avi
Format : AVI
Format/Info : Audio Video Interleave
File size : 745 MiB
Duration : 1h 23mn
Overall bit rate : 1 241 Kbps
Writing application : VirtualDubMod 1.5.10.3 | www.virtualdub-fr.org || (build 2550/release)
Writing library : VirtualDubMod build 2550/release
Video
ID : 0
Format : MPEG-4 Visual
Format profile : Advanced Simple@L5
Format settings, BVOP : 1
Format settings, QPel : No
Format settings, GMC : No warppoints
Format settings, Matrix : Custom
Codec ID : XVID
Codec ID/Hint : XviD
Duration : 1h 23mn
Bit rate : 1 103 Kbps
Width : 592 pixels
Height : 368 pixels
Display aspect ratio : 16:10
Frame rate : 25.000 fps
Color space : YUV
Chroma subsampling : 4:2:0
Bit depth : 8 bits
Scan type : Progressive
Compression mode : Lossy
Bits/(Pixel*Frame) : 0.203
Stream size : 662 MiB (89%)
Writing library : XviD 73
Audio
ID : 1
Format : MPEG Audio
Format version : Version 1
Format profile : Layer 3
Mode : Joint stereo
Mode extension : MS Stereo
Codec ID : 55
Codec ID/Hint : MP3
Duration : 1h 23mn
Bit rate mode : Constant
Bit rate : 128 Kbps
Channel(s) : 2 channels
Sampling rate : 44.1 KHz
Compression mode : Lossy
Stream size : 76.8 MiB (10%)
Alignment : Split accross interleaves
Interleave, duration : 40 ms (1.00 video frame)
Interleave, preload duratio : 500 ms
Writing library : LAME3.99r
Encoding settings : -m j -V 4 -q 2 -lowpass 17 -b 128

Релиз от:



   Похожие торренты   Торрент   Размер 
В этой теме нет новых непрочитанных сообщений. Год хорошего ребенка (1991) VHSRip от Odyzic

10 | 3

1.39 ГБ

В этой теме нет новых непрочитанных сообщений. Рожденный вором / Once a Thief / Zong heng si hai (1991) HDRip от Шкипер | Р

49 | 4

746.97 МБ

В этой теме нет новых непрочитанных сообщений. Невозвращенец (1991) VHSRip

266 | 5

1.37 ГБ

В этой теме нет новых непрочитанных сообщений. СекСказка (1991) VHSRip

75 | 13

748.81 МБ

В этой теме нет новых непрочитанных сообщений. СекСказка (1991) VHSRip

249 | 15

1.37 ГБ

В этой теме нет новых непрочитанных сообщений. Матушка / Mom (1991) VHSRip

0 | 6

770.82 МБ

В этой теме нет новых непрочитанных сообщений. Улыбка (1991) VHSRip

100 | 2

692.75 МБ




Вы не можете начинать темы
Вы не можете отвечать на сообщения
Вы не можете редактировать свои сообщения
Вы не можете удалять свои сообщения
Вы не можете добавлять вложения

Перейти:  
Для Мосгорсуда, Роскомнадзора и рекламодателей: mosgorsud-torrent[собачка]yandex.ru
Настройки
ppkBB3cker v.2 © 2008-2014 @ PPK
[ Time : 0.021s | 15 Queries | GZIP : Off ]
CGP [Extreme] output time : 0.00017s | 0 Queries | GZIP : Off

Торрент трекер RUTOR.IN, Не можете зайти на rutor.org? Какой новый адрес рутор? Какое зеркало рутор? Не работает rutor.org и зеркала? Тогда наш торрент специально для вас. Rutor.in неофициальное зеркало rutor. В случае если у Вас заблокирован rutor или вдруг Вы не можете на него зайти, то Вы без труда сможете скачать бесплатно и без рекламы последние новинки кино, игр, сериалов и прочего у нас, на Rutor.in. Не нужно использовать прокси, чтобы зайти на рутор, достаточно воспользоваться нашим ресурсом. Все новые фильмы, игры, сериалы, книги и музыка за 2013 и 2014 годы через торрент бесплатно. Скачивайте фильмы в хорошем качестве, игры для пк, xbox, playstation без регистрации. У нас вы найдете новые Зарубежные сериалы и Русские сериалы 2013, 2014, 2015 годов. Оставайтесь с нами, качайте любимые фильмы, игры, сериалы, книги и музыку.