img image001 image001 image001 image001 image001 image001 image001 image001 image001 image001 image001 image001 image001 image001 image001

Planets Sun Sun Sun
Статистика раздачи
Автор: Nickolas3434 | Размер: 2.18 ГБ | Добавлен: 20 ноя 2015
Раздают: 96    Качают: 43
Скачать торрент
Скачать торрент
Описание торрента

СообщениеДобавлено: 20 ноя 2015 

Страна: СССР
Производство: Мосфильм
Жанр: драма, история
Год выпуска: 1958
Продолжительность: 02:28:42
Перевод: Не требуется
Cубтитры: нет
Оригинальная аудиодорожка: русский
Режиссер: Михаил Чиаурели
В ролях:
Павел Молчанов, Михаил Геловани, Борис Андреев, Марина Ковалёва, Иван Бобров, Владимир Ратомский, Александр Дегтярь, Василий Меркурьев, Николай Комиссаров, Андрей Попов, Евгений Самойлов, Сергей Лукьянов, Владимир Кенигсон, Борис Дмоховский, Ангелина Степанова, Михаил Яншин, Борис Бибиков, Павел Массальский, Виктор Станицын, Гнат (Игнатий) Юра, Виктор Кольцов (Кутаков), Л. Корсаков...
Полный список актёров
Описание:
По одноименной пьесе В.Вишневского, написанной к 70-летию Сталина.
Май 1919 года, разгар гражданской войны. Руководство Петрограда в панике не может остановить наступление белых. Товарищ Сталин спасает молодую республику Советов, появившись на фронте в самый драматический момент. Он умело и быстро очищает армию и флот от изменников, отменяет вредительскую директиву об эвакуации Питера и разоружении флота. Сюжет полностью соответствует изложению истории в «Кратком курсе ВКП(б)».
Фигура Сталина и его роль в правительстве Советской России гиперболизирована, в угоду тогдашним идеологическим представлениям. Фильм яркий образец сталинианы в советском кинематографе 1940-1950-х годов.
Над Петроградом нависла угроза иностранной интервенции. В городе зреет заговор белогвардейцев. Для усиления обороны одного из важнейших опорных пунктов - форта Красная Горка направляется отряд рабочих. Среди них уполномоченный особого отдела Балтфлота Владимир Шибаев (Борис Андреев). Мятежники арестовывают коммунистов отряда. Брат коменданта форта Николая Неклюдова (Андрей Попов), Александр, жертвуя жизнью, помогает Шибаеву бежать. Вернувшись в Питер, Шибаев принимает активное участие в массовых обысках в буржуазных кварталах. Раскрыты и обезврежены крупные очаги контрреволюции. Начинается штурм Красной Горки. На помощь мятежникам приходит английская эскадра. Но революционные корабли выигрывают бой с англичанами. Красноармейцы и моряки врываются на Красную Горку. Шибаев, пробравшись в минный каземат, предотвращает подготовленный английским агентом Дэксом, он же матрос Урванцов (Владимир Кенигсон) взрыв форта.






Источник: DVD9 R5
Качество видео: DVDRip-AVC
Формат видео: MKV
Видео: 688->750x562 (4:3), 25 fps, H264 ~ 1967 kbps avg, 0.203 bit/pixel
Аудио: 48 kHz, Dolby Digital AC3 1.0, 128 kbps
Раздача от:
... Рассказывают, что, когда товарищу Сталину демонстрировали только что отснятый фильм "Незабываемый 1919-й", атмосфера в просмотровом зале с каждой минутой становилась все более напряженной. На экране товарищ Сталин неторопливо переходил из одной исторической ситуации в другую, одаряя революцию единственно верными решениями, и тут же суетился Владимир Ильич, то и дело озабоченно произносящий: "По этому поводу вам надо посоветоваться с товарищем Сталиным", — все было путём, но лицо Вождя, сидевшего по обыкновению в заднем ряду с погашенной трубкой, порождало у присутствующих все более тревожные предчувствия. И когда фильм окончился, товарищ Сталин с трудом поднялся и, ни на кого не глядя, произнес с напором: "Нэ так всо это было. Савсэм нэ так". Фильм, впрочем, прошел по экранам страны с обычным успехом и получил все полагающиеся премии....

Общее
Полное имя : Nezabyvaemyy.1919.god.1951.DVDRip-AVC_[New-team]_by_AVP_Studio.mkv
Формат : Matroska
Версия формата : Version 2
Размер файла : 2,18 Гбайт
Продолжительность : 2 ч. 28 м.
Общий поток : 2097 Кбит/сек
Дата кодирования : UTC 2015-11-18 17:15:44
Программа кодирования : mkvmerge v6.1.0 ('Old Devil') built on Mar 4 2013 09:10:42
Библиотека кодирования : libebml v1.3.0 + libmatroska v1.4.0
Видео
Идентификатор : 1
Формат : AVC
Формат/Информация : Advanced Video Codec
Профиль формата : High@L4.1
Параметр CABAC формата : Да
Параметр ReFrames формата : 10 кадров
Идентификатор кодека : V_MPEG4/ISO/AVC
Продолжительность : 2 ч. 28 м.
Битрейт : 1967 Кбит/сек
Ширина : 688 пикселей
Высота : 562 пикселя
Соотношение сторон : 4:3
Режим частоты кадров : Постоянный
Частота кадров : 25,000 кадров/сек
Цветовое пространство : YUV
Субдискретизация насыщенности : 4:2:0
Битовая глубина : 8 бит
Тип развёртки : Прогрессивная
Бит/(Пиксели*Кадры) : 0.203
Размер потока : 2,00 Гбайт (92%)
Библиотека кодирования : x264 core 148 r2597 e86f3a1
Настройки программы : cabac=1 / ref=10 / deblock=1:-2:-1 / analyse=0x3:0x113 / me=umh / subme=10 / psy=1 / psy_rd=1.00:0.00 / mixed_ref=1 / me_range=32 / chroma_me=1 / trellis=2 / 8x8dct=1 / cqm=0 / deadzone=21,11 / fast_pskip=1 / chroma_qp_offset=-2 / threads=6 / lookahead_threads=1 / sliced_threads=0 / nr=0 / decimate=0 / interlaced=0 / bluray_compat=0 / constrained_intra=0 / bframes=8 / b_pyramid=2 / b_adapt=2 / b_bias=0 / direct=3 / weightb=1 / open_gop=0 / weightp=2 / keyint=250 / keyint_min=25 / scenecut=40 / intra_refresh=0 / rc=2pass / mbtree=0 / bitrate=1967 / ratetol=1.0 / qcomp=0.60 / qpmin=0 / qpmax=69 / qpstep=4 / cplxblur=20.0 / qblur=0.5 / ip_ratio=1.40 / pb_ratio=1.30 / aq=1:1.00
Default : Да
Forced : Нет
Аудио
Идентификатор : 2
Формат : AC-3
Формат/Информация : Audio Coding 3
Расширение режима : CM (complete main)
Параметр Endianness формата : Big
Идентификатор кодека : A_AC3
Продолжительность : 2 ч. 28 м.
Вид битрейта : Постоянный
Битрейт : 128 Кбит/сек
Каналы : 1 канал
Расположение каналов : Front: C
Частота : 48,0 КГц
Метод сжатия : С потерями
Размер потока : 136 Мбайт (6%)
Default : Да
Forced : Нет





   Похожие торренты   Торрент   Размер 
В этой теме нет новых непрочитанных сообщений. Незабываемый 1919 год (1951) DVDRip от New-Team

29 | 2

1.46 ГБ

В этой теме нет новых непрочитанных сообщений. Белинский (1951) DVDRip-AVC от New-Team

39 | 20

1.46 ГБ

В этой теме нет новых непрочитанных сообщений. Пржевальский (1951) DVDRip от New-Team

15 | 15

1.46 ГБ

В этой теме нет новых непрочитанных сообщений. Белинский (1951) DVDRip от New-Team

5 | 19

745.32 МБ

В этой теме нет новых непрочитанных сообщений. Белинский (1951) DVDRip от New-Team

48 | 6

1.46 ГБ

В этой теме нет новых непрочитанных сообщений. Пржевальский (1951) DVDRip от New-Team

31 | 7

745.87 МБ

В этой теме нет новых непрочитанных сообщений. Пржевальский (1951) DVDRip-AVC от New-Team

68 | 27

1.46 ГБ




Вы не можете начинать темы
Вы не можете отвечать на сообщения
Вы не можете редактировать свои сообщения
Вы не можете удалять свои сообщения
Вы не можете добавлять вложения

Перейти:  
Для Мосгорсуда, Роскомнадзора и рекламодателей: mosgorsud-torrent[собачка]yandex.ru
 Вход
ppkBB3cker v.2 © 2008-2014 @ PPK
[ Time : 0.061s | 16 Queries | GZIP : Off ]

Торрент трекер RUTOR.IN, Не можете зайти на rutor.org? Какой новый адрес рутор? Какое зеркало рутор? Не работает rutor.org и зеркала? Тогда наш торрент специально для вас. Rutor.in неофициальное зеркало rutor. В случае если у Вас заблокирован rutor или вдруг Вы не можете на него зайти, то Вы без труда сможете скачать бесплатно и без рекламы последние новинки кино, игр, сериалов и прочего у нас, на Rutor.in. Не нужно использовать прокси, чтобы зайти на рутор, достаточно воспользоваться нашим ресурсом. Все новые фильмы, игры, сериалы, книги и музыка за 2013 и 2014 годы через торрент бесплатно. Скачивайте фильмы в хорошем качестве, игры для пк, xbox, playstation без регистрации. У нас вы найдете новые Зарубежные сериалы и Русские сериалы 2013, 2014, 2015 годов. Оставайтесь с нами, качайте любимые фильмы, игры, сериалы, книги и музыку.