img image001 image001 image001 image001 image001 image001 image001 image001 image001 image001 image001 image001 image001 image001 image001

Planets Sun Sun Sun
Статистика раздачи
Автор: Nickolas3434 | Размер: 747.59 МБ | Добавлен: 20 ноя 2015
Раздают: 532    Качают: 156
Скачать торрент
Скачать торрент
Описание торрента

СообщениеДобавлено: 20 ноя 2015 


Информация о фильме
Название: Пленный
Год выхода: 2008
Жанр: Драма, военный
Режиссер: Алексей Учитель
В ролях: Юлия Пересильд (Настя), Вячеслав Крикунов (Рубахин), Петр Логачев (Вовка-стрелок), Ираклий Мсхалаиа (Джамал), Сергей Уманов (Савкин), Тагир Рахимов (Гуров), Лариса Шамсадова (Исса), Светлана Дорохина (жена Гурова), Иван Косичкин, Дагун Омаев (Алибеков)
О фильме:
Кавказская война. Чеченцы перекрыли дорогу, и федералам нужно заплатить за проезд. Денег или патронов нет, подкрепления ждать неоткуда, поэтому двое бывалых рядовых-старослужащих ловят пленного, чтобы им расплатиться за проезд. Груз, впрочем, оказывается более ценным и опасным, чем они думали.

Страна: Россия, Болгария
Продолжительность: 01:20:21
Перевод: Не требуется
Файл
Кодек: XviD
Качество: HDRip
Видео: 624x352 (1.77:1), 25 fps, XviD build 73 ~1162 kbps avg, 0.21 bit/pixel
Звук: 48 kHz, MPEG Layer 3, 2 ch, ~128.00 kbps avg
Субтитры: Отсутствует
Семпл
General
Complete name : E:Изготовление риповPlennyj 2008.HDRip.by shkiper.avi
Format : AVI
Format/Info : Audio Video Interleave
File size : 748 MiB
Duration : 1h 20mn
Overall bit rate : 1 301 Kbps
Writing application : VirtualDubMod 1.5.10.3 | www.virtualdub-fr.org || (build 2550/release)
Writing library : VirtualDubMod build 2550/release
Video
ID : 0
Format : MPEG-4 Visual
Format profile : Advanced Simple@L5
Format settings, BVOP : 1
Format settings, QPel : No
Format settings, GMC : No warppoints
Format settings, Matrix : Custom
Codec ID : XVID
Codec ID/Hint : XviD
Duration : 1h 20mn
Bit rate : 1 163 Kbps
Width : 624 pixels
Height : 352 pixels
Display aspect ratio : 16:9
Frame rate : 25.000 fps
Color space : YUV
Chroma subsampling : 4:2:0
Bit depth : 8 bits
Scan type : Progressive
Compression mode : Lossy
Bits/(Pixel*Frame) : 0.212
Stream size : 668 MiB (89%)
Writing library : XviD 73
Audio
ID : 1
Format : MPEG Audio
Format version : Version 1
Format profile : Layer 3
Mode : Joint stereo
Codec ID : 55
Codec ID/Hint : MP3
Duration : 1h 20mn
Bit rate mode : Constant
Bit rate : 128 Kbps
Channel(s) : 2 channels
Sampling rate : 48.0 KHz
Compression mode : Lossy
Stream size : 73.6 MiB (10%)
Alignment : Aligned on interleaves
Interleave, duration : 40 ms (1.00 video frame)
Interleave, preload duratio : 504 ms
Writing library : LAME3.99r
Encoding settings : -m j -V 4 -q 2 -lowpass 17 -b 128

Релиз от:



   Похожие торренты   Торрент   Размер 
В этой теме нет новых непрочитанных сообщений. Пленный / Кавказский пленный (2008) HDTV 1080i от MediaClub

35 | 20

6.44 ГБ

В этой теме нет новых непрочитанных сообщений. Пленный (2008) DVDRip

244 | 18

699.71 МБ

В этой теме нет новых непрочитанных сообщений. Пленный (2008) BDRip 720p

296 | 8

4.37 ГБ

В этой теме нет новых непрочитанных сообщений. Пленный (2008) DVDRip от R.G. Mega Best

102 | 6

1.37 ГБ

В этой теме нет новых непрочитанных сообщений. Особо опасен / Wanted (2008) HDRip от Шкипер

167 | 11

750.63 МБ

В этой теме нет новых непрочитанных сообщений. Кодекс вора / The Code (2008) HDRip от Шкипер | D

306 | 19

745.8 МБ

В этой теме нет новых непрочитанных сообщений. Сказки на ночь / Bedtime Stories (2008) HDRip от Шкипер | D

177 | 36

1.46 ГБ




Вы не можете начинать темы
Вы не можете отвечать на сообщения
Вы не можете редактировать свои сообщения
Вы не можете удалять свои сообщения
Вы не можете добавлять вложения

Перейти:  
Для Мосгорсуда, Роскомнадзора и рекламодателей: mosgorsud-torrent[собачка]yandex.ru
 Вход
ppkBB3cker v.2 © 2008-2014 @ PPK
[ Time : 1.088s | 16 Queries | GZIP : Off ]

Торрент трекер RUTOR.IN, Не можете зайти на rutor.org? Какой новый адрес рутор? Какое зеркало рутор? Не работает rutor.org и зеркала? Тогда наш торрент специально для вас. Rutor.in неофициальное зеркало rutor. В случае если у Вас заблокирован rutor или вдруг Вы не можете на него зайти, то Вы без труда сможете скачать бесплатно и без рекламы последние новинки кино, игр, сериалов и прочего у нас, на Rutor.in. Не нужно использовать прокси, чтобы зайти на рутор, достаточно воспользоваться нашим ресурсом. Все новые фильмы, игры, сериалы, книги и музыка за 2013 и 2014 годы через торрент бесплатно. Скачивайте фильмы в хорошем качестве, игры для пк, xbox, playstation без регистрации. У нас вы найдете новые Зарубежные сериалы и Русские сериалы 2013, 2014, 2015 годов. Оставайтесь с нами, качайте любимые фильмы, игры, сериалы, книги и музыку.
cron