img image001 image001 image001 image001 image001 image001 image001 image001 image001 image001 image001 image001 image001 image001 image001

Planets Sun Sun Sun
Статистика раздачи
Автор: Nickolas3434 | Размер: 1.11 ГБ | Добавлен: 21 ноя 2015
Раздают: 46    Качают: 13
Скачать торрент
Скачать торрент
Описание торрента

СообщениеДобавлено: 21 ноя 2015 


Информация о фильме
Название: Мама, я жив!
Год выхода: 1985
Жанр: драма, военный
Режиссер: Игорь Добролюбов
В ролях: Стефания Станюта, Женя Кунский, Валерий Филатов, Юрий Кухаренок, Юра Воробей, Саша Моисеев, Рита Ярошевич, Игорь Сусенкевич, Андрюша Соловей, Геннадий Гарбук, Геннадий Давыдько, Галина Макарова, Вова Хвощевский, Лена Соловей, Вика Макуха, Анатолий Терпицкий, Александр Беспалый, Александр Аржиловский, Фома Воронецкий, Леонид Гривенев
О фильме:
Шел 1943 год. Двенадцатилетний Петька Дым попадает в партизанский отряд. Опасаясь за жизнь маленького разведчика, командир отряда отправляет его в лесную школу. Однажды партизанское командование перед тем, как выйти в опасный рейд, решает вывезти школу в освобожденный от немцев район. Появившиеся фашисты не дают партизанам возможности посадить детей на прибывший самолет...
Доп. информация:
Сценарист: Владимир Халип
Оператор: Григорий Масальский
Композитор: Валерий Зубков
Художник: Евгений Ганкин
Производство: "Беларусьфильм"
Премьера: ноябрь 1985

Благодарность: исходник для данной раздачи, записан с цифрового наземного канала, т.е. DVB-Т, любезно предоставлен PavelDAS .
За что ему большое спасибо!

Страна: Белорусская ССР
Студия: Беларусьфильм
Продолжительность: 01:07:23
Перевод: не требует
Файл
Кодек: AVC (H264)
Качество: DVB
Видео: AVC (H264), 720x576 (4:3), 25 fps, 2 095 Kbps
Звук: MP2, 224kbps, 2 channels, 48 kHz
Семпл
Код:
General
Unique ID                      : 255786091999452970228626240483399143733 (0xC06E9C013DFC996BD853CB4BD0499135)
Complete name                  : D:Новая  земля 2Художественные фильмыМама, я жив (1985) Есть старый вариантМама, я жив (1985).mkv
Format                         : Matroska
Format version                 : Version 2
File size                      : 1.11 GiB
Duration                       : 1h 7mn
Overall bit rate               : 2 366 Kbps
Writing application            : Lavf52.64.2
Writing library                : Lavf52.64.2
Video
ID                             : 1
Format                         : AVC
Format/Info                    : Advanced Video Codec
Format profile                 : Main@L3.0
Format settings, CABAC         : Yes
Format settings, ReFrames      : 4 frames
Format settings, GOP           : M=4, N=24
Codec ID                       : V_MPEG4/ISO/AVC
Duration                       : 1h 7mn
Bit rate                       : 2 095 Kbps
Width                          : 720 pixels
Height                         : 576 pixels
Display aspect ratio           : 4:3
Original display aspect ratio  : 4:3
Frame rate mode                : Constant
Frame rate                     : 25.000 fps
Standard                       : PAL
Color space                    : YUV
Chroma subsampling             : 4:2:0
Bit depth                      : 8 bits
Scan type                      : MBAFF
Scan order                     : Top Field First
Bits/(Pixel*Frame)             : 0.202
Stream size                    : 1 010 MiB (89%)
Default                        : Yes
Forced                         : No
Color primaries                : BT.601 PAL
Transfer characteristics       : BT.470 System B, BT.470 System G
Matrix coefficients            : BT.601
Color range                    : Limited
Audio
ID                             : 2
Format                         : MPEG Audio
Format version                 : Version 1
Format profile                 : Layer 2
Codec ID                       : A_MPEG/L2
Codec ID/Hint                  : MP2
Duration                       : 1h 7mn
Bit rate mode                  : Constant
Bit rate                       : 224 Kbps
Channel(s)                     : 2 channels
Sampling rate                  : 48.0 KHz
Compression mode               : Lossy
Stream size                    : 108 MiB (9%)
Default                        : Yes
Forced                         : No





   Похожие торренты   Торрент   Размер 
В этой теме нет новых непрочитанных сообщений. Мама, я жив! (1985) SATRip от AND03AND

11 | 75

1.08 ГБ

В этой теме нет новых непрочитанных сообщений. Тетя Маруся (1985) DVB от AND03AND

22 | 6

2.24 ГБ

В этой теме нет новых непрочитанных сообщений. Тревоги первых птиц (1985) DVB от AND03AND

42 | 11

1.48 ГБ

В этой теме нет новых непрочитанных сообщений. Морис Равель - Болеро (Валентин Елизарьев) (1985) DVB от AND03AND

17 | 5

343 МБ

В этой теме нет новых непрочитанных сообщений. Мама-невидимка (Невидимая мама) / Invisible Mom (1996) DVDRip от PlanetaUA

285 | 9

1.46 ГБ

В этой теме нет новых непрочитанных сообщений. Варчун и Карандаш - Мама не пей, Мама это ЯД! (2012) FLAC

5 | 1

298.98 МБ

В этой теме нет новых непрочитанных сообщений. Варчун и Карандаш - Мама не пей, Мама это ЯД! (2012) MP3

7 | 5

100.91 МБ




Вы не можете начинать темы
Вы не можете отвечать на сообщения
Вы не можете редактировать свои сообщения
Вы не можете удалять свои сообщения
Вы не можете добавлять вложения

Перейти:  
Для Мосгорсуда, Роскомнадзора и рекламодателей: mosgorsud-torrent[собачка]yandex.ru
 Вход
ppkBB3cker v.2 © 2008-2014 @ PPK
[ Time : 0.029s | 15 Queries | GZIP : Off ]

Торрент трекер RUTOR.IN, Не можете зайти на rutor.org? Какой новый адрес рутор? Какое зеркало рутор? Не работает rutor.org и зеркала? Тогда наш торрент специально для вас. Rutor.in неофициальное зеркало rutor. В случае если у Вас заблокирован rutor или вдруг Вы не можете на него зайти, то Вы без труда сможете скачать бесплатно и без рекламы последние новинки кино, игр, сериалов и прочего у нас, на Rutor.in. Не нужно использовать прокси, чтобы зайти на рутор, достаточно воспользоваться нашим ресурсом. Все новые фильмы, игры, сериалы, книги и музыка за 2013 и 2014 годы через торрент бесплатно. Скачивайте фильмы в хорошем качестве, игры для пк, xbox, playstation без регистрации. У нас вы найдете новые Зарубежные сериалы и Русские сериалы 2013, 2014, 2015 годов. Оставайтесь с нами, качайте любимые фильмы, игры, сериалы, книги и музыку.