img image001 image001 image001 image001 image001 image001 image001 image001 image001 image001 image001 image001 image001 image001 image001

Planets Sun Sun Sun
Статистика раздачи
Автор: Nickolas3434 | Размер: 745.46 МБ | Добавлен: 24 ноя 2015
Раздают: 304    Качают: 72
Скачать торрент
Скачать торрент
Описание торрента

СообщениеДобавлено: 24 ноя 2015 


Информация о фильме
Название: Алла в поисках Аллы
Год выхода: 2015
Жанр: Мелодрама
Режиссер: Алексей Карелин
В ролях: Юлия Жигалина, Олег Алмазов, Максим Кречетов, Марина Денисова, Андрей Карако, Иван Павлов, Олег Ткачёв, Алла Волынец, Андрей Королевич, Александр Павлов (IV), Алексей Карелин
О фильме:
Успешная деловая женщина Алла Новикова впервые после окончания школы решила сходить на встречу одноклассников. Очнулась она на помойке на заднем дворе ресторана. Неприятности этим не ограничились, так как Алла упорно не могла вспомнить кто она такая, где живет, чем занимается. Добрый самаритянин Андрей начинает помогать растерявшейся женщине и сразу обнаруживает, что у этой дамочки несносный характер.

Страна: Россия
Студия: Продюсерский центр "Фабула", "Паламеда Продакшн"
Продолжительность: 01:29:47
Перевод: Не требуется
Файл
Кодек: XviD
Качество: HDTVRip
Видео: 624x352 (1.77:1), 25 fps, XviD build 73 ~1022 kbps avg, 0.19 bit/pixel
Звук: 48 kHz, MPEG Layer 3, 2 ch, ~128.00 kbps avg
Субтитры: Отсутствует
Семпл
General
Complete name : D:ТоррентыРИП ОТ ШКИПЕРАлла в поисках АллыAlla.v.piskah.Ally.2015.HDTVRip.shkiper.avi
Format : AVI
Format/Info : Audio Video Interleave
File size : 745 MiB
Duration : 1h 29mn
Overall bit rate : 1 161 Kbps
Writing application : VirtualDubMod 1.5.10.3 | www.virtualdub-fr.org || (build 2550/release)
Writing library : VirtualDubMod build 2550/release
Video
ID : 0
Format : MPEG-4 Visual
Format profile : Advanced Simple@L5
Format settings, BVOP : 1
Format settings, QPel : No
Format settings, GMC : No warppoints
Format settings, Matrix : Custom
Codec ID : XVID
Codec ID/Hint : XviD
Duration : 1h 29mn
Bit rate : 1 023 Kbps
Width : 624 pixels
Height : 352 pixels
Display aspect ratio : 16:9
Frame rate : 25.000 fps
Color space : YUV
Chroma subsampling : 4:2:0
Bit depth : 8 bits
Scan type : Progressive
Compression mode : Lossy
Bits/(Pixel*Frame) : 0.186
Stream size : 657 MiB (88%)
Writing library : XviD 73
Audio
ID : 1
Format : MPEG Audio
Format version : Version 1
Format profile : Layer 3
Mode : Joint stereo
Mode extension : MS Stereo
Codec ID : 55
Codec ID/Hint : MP3
Duration : 1h 29mn
Bit rate mode : Constant
Bit rate : 128 Kbps
Channel(s) : 2 channels
Sampling rate : 48.0 KHz
Compression mode : Lossy
Stream size : 82.2 MiB (11%)
Alignment : Aligned on interleaves
Interleave, duration : 40 ms (1.00 video frame)
Interleave, preload duratio : 504 ms
Writing library : LAME3.99r
Encoding settings : -m j -V 4 -q 2 -lowpass 17 -b 128

Релиз от:



   Похожие торренты   Торрент   Размер 
В этой теме нет новых непрочитанных сообщений. Алла в поисках Аллы (2015) HDTVRip-AVC от Files-x

356 | 98

1.37 ГБ

В этой теме нет новых непрочитанных сообщений. Алла в поисках Аллы (2015) HDTVRip от Files-x

1729 | 441

1.37 ГБ

В этой теме нет новых непрочитанных сообщений. Алла в поисках Аллы (2015) HDTVRip 720p от MediaClub

175 | 14

2.43 ГБ

В этой теме нет новых непрочитанных сообщений. С днем рождения, Алла! - Юбилейный концерт Аллы Пугачевой в Лужниках (2009) SATRip

45 | 16

3.48 ГБ

В этой теме нет новых непрочитанных сообщений. Новые русские сенсации. Дети Аллы Пугачевой [16.05] (2015) HDTVRip от GeneralFilm

219 | 21

508.77 МБ

В этой теме нет новых непрочитанных сообщений. Алла Пугачёва - Алла Пугачёва - XXXV (Избранное. 2 CD) (2015) FLAC

214 | 21

937.51 МБ

В этой теме нет новых непрочитанных сообщений. Рождественские встречи Аллы Пугачевой [часть 01-02] (2013) HDTVRip 720p

1 | 2

4.39 ГБ




Вы не можете начинать темы
Вы не можете отвечать на сообщения
Вы не можете редактировать свои сообщения
Вы не можете удалять свои сообщения
Вы не можете добавлять вложения

Перейти:  
Для Мосгорсуда, Роскомнадзора и рекламодателей: mosgorsud-torrent[собачка]yandex.ru
 Вход
ppkBB3cker v.2 © 2008-2014 @ PPK
[ Time : 0.029s | 14 Queries | GZIP : Off ]

Торрент трекер RUTOR.IN, Не можете зайти на rutor.org? Какой новый адрес рутор? Какое зеркало рутор? Не работает rutor.org и зеркала? Тогда наш торрент специально для вас. Rutor.in неофициальное зеркало rutor. В случае если у Вас заблокирован rutor или вдруг Вы не можете на него зайти, то Вы без труда сможете скачать бесплатно и без рекламы последние новинки кино, игр, сериалов и прочего у нас, на Rutor.in. Не нужно использовать прокси, чтобы зайти на рутор, достаточно воспользоваться нашим ресурсом. Все новые фильмы, игры, сериалы, книги и музыка за 2013 и 2014 годы через торрент бесплатно. Скачивайте фильмы в хорошем качестве, игры для пк, xbox, playstation без регистрации. У нас вы найдете новые Зарубежные сериалы и Русские сериалы 2013, 2014, 2015 годов. Оставайтесь с нами, качайте любимые фильмы, игры, сериалы, книги и музыку.