img image001 image001 image001 image001 image001 image001 image001 image001 image001 image001 image001 image001 image001 image001 image001

Planets Sun Sun Sun
Статистика раздачи
Автор: Nickolas3434 | Размер: 1.56 ГБ | Добавлен: 24 ноя 2015
Раздают: 82    Качают: 32
Скачать торрент
Скачать торрент
Описание торрента

СообщениеДобавлено: 24 ноя 2015 


Информация о фильме
Название: Завтра была война
Год выхода: 1987
Жанр: драма, семейный, военный
Режиссер: Юрий Кара
В ролях: Сергей Никоненко, Нина Русланова, Вера Алентова, Владимир Заманский, Ирина Чериченко, Наталья Негода, Юлия Тархова, Радий Овчинников, Геннадий Фролов, Владислав Демченко, Виктор Аникиев, Екатерина Никоненко, Владимир Маслаков, Александр Гаврилов, Михаил Анисимов, Александр Александров, Елизавета Потапова, Екатерина Воронина, Ким Староскольцев, Лина Гурина, Миша Николаев, Сергей Столяров
О фильме: Драматическая киноповесть о поколении, оказавшемся на пороге взрослой жизни. Действие происходит в канун Отечественной войны в провинциальном городке. Юным героям, открытым для дружбы и любви, приходится столкнуться с политическим фанатизмом, предательством и ложью, пережить страшные потери. Но они сумеют сохранить душевную чистоту и верность идеалам. И именно такие, как они, защитят Родину в боях Отечественной войны… Экранизация по произведению: Борис Васильев.
Страна: СССР
Продолжительность: 01:24:29
Перевод: не требуется
Файл
Кодек: x264
Качество: DVDRip-AVC
Видео: MPEG-4 AVC, 2000 Кбит/с, 702x568@748x568
Звук: АС3, 6 ch, 448 Кбит/с, АС3, 1 ch, 192 Кбит/с

raw [info]: 702x568p 16:15 @ 25/1 fps (cfr)
x264 [info]: using SAR=16/15
x264 [info]: using cpu capabilities: MMX2 SSE2Fast SSSE3 SSE4.2 AVX
x264 [info]: profile High, level 4.1
x264 [info]: frame I:44 Avg QP:15.00 size: 81911
x264 [info]: frame P:608 Avg QP:18.35 size: 23474
x264 [info]: frame B:1883 Avg QP:20.30 size: 3938
===========================================================================================================
Общее
Уникальный идентификатор : 175502973596019547698818239200401348113 (0x8408A4A9EB414AA99805B4291AC0D611)
Полное имя : D:Завтра была война_1987-DVDRip-AVC.mkv
Формат : Matroska
Версия формата : Version 2
Размер файла : 1,56 Гбайт
Продолжительность : 1 ч. 24 м.
Общий поток : 2642 Кбит/сек
Дата кодирования : UTC 2015-11-23 13:03:08
Программа кодирования : mkvmerge v5.8.0 ('No Sleep / Pillow') built on Sep 2 2012 15:37:04
Библиотека кодирования : libebml v1.2.3 + libmatroska v1.3.0
Видео
Идентификатор : 1
Формат : AVC
Формат/Информация : Advanced Video Codec
Профиль формата : High@L4.1
Параметр CABAC формата : Да
Параметр ReFrames формата : 15 кадров
Идентификатор кодека : V_MPEG4/ISO/AVC
Продолжительность : 1 ч. 24 м.
Битрейт : 2000 Кбит/сек
Ширина : 702 пикселя
Высота : 568 пикселей
Соотношение сторон : 4:3
Соотношение сторон в оригинале : 4:3
Режим частоты кадров : Постоянный
Частота кадров : 25,000 кадров/сек
Цветовое пространство : YUV
Субдискретизация насыщенности : 4:2:0
Битовая глубина : 8 бит
Тип развёртки : Прогрессивная
Бит/(Пиксели*Кадры) : 0.201
Размер потока : 1,15 Гбайт (74%)
Библиотека кодирования : x264 core 148 r2579 73ae2d1
Настройки программы : cabac=1 / ref=15 / deblock=1:-2:-2 / analyse=0x3:0x133 / me=umh / subme=10 / psy=1 / psy_rd=1.05:0.13 / mixed_ref=1 / me_range=32 / chroma_me=1 / trellis=2 / 8x8dct=1 / cqm=0 / deadzone=21,11 / fast_pskip=0 / chroma_qp_offset=-3 / threads=12 / lookahead_threads=3 / sliced_threads=0 / nr=0 / decimate=0 / interlaced=0 / bluray_compat=0 / constrained_intra=0 / bframes=12 / b_pyramid=2 / b_adapt=2 / b_bias=0 / direct=3 / weightb=1 / open_gop=0 / weightp=2 / keyint=250 / keyint_min=25 / scenecut=40 / intra_refresh=0 / rc=2pass / mbtree=0 / bitrate=2000 / ratetol=1.0 / qcomp=0.63 / qpmin=0 / qpmax=39 / qpstep=4 / cplxblur=20.0 / qblur=0.5 / ip_ratio=1.40 / pb_ratio=1.30 / aq=1:1.00
Язык : English
Default : Да
Forced : Нет
Цветовой диапазон : Limited
Основные цвета : BT.601 PAL
Характеристики трансфера : BT.470 System B, BT.470 System G
Коэффициенты матрицы : BT.601
Аудио #1
Идентификатор : 2
Формат : AC-3
Формат/Информация : Audio Coding 3
Расширение режима : CM (complete main)
Параметр Endianness формата : Big
Идентификатор кодека : A_AC3
Продолжительность : 1 ч. 24 м.
Вид битрейта : Постоянный
Битрейт : 448 Кбит/сек
Каналы : 6 каналов
Расположение каналов : Front: L C R, Side: L R, LFE
Частота : 48,0 КГц
Метод сжатия : С потерями
Размер потока : 271 Мбайт (17%)
Язык : Russian
Default : Да
Forced : Нет
Аудио #2
Идентификатор : 3
Формат : AC-3
Формат/Информация : Audio Coding 3
Расширение режима : CM (complete main)
Параметр Endianness формата : Big
Идентификатор кодека : A_AC3
Продолжительность : 1 ч. 24 м.
Вид битрейта : Постоянный
Битрейт : 192 Кбит/сек
Каналы : 1 канал
Расположение каналов : Front: C
Частота : 48,0 КГц
Метод сжатия : С потерями
Размер потока : 116 Мбайт (7%)
Язык : Russian
Default : Нет
Forced : Нет

Релиз от:
Автор релиза:



   Похожие торренты   Торрент   Размер 
В этой теме нет новых непрочитанных сообщений. Завтра была война (1987) DVDRip

41 | 7

1.44 ГБ

В этой теме нет новых непрочитанных сообщений. Завтра была война (1987) DVDRip

10 | 4

701.97 МБ

В этой теме нет новых непрочитанных сообщений. Завтра была война (1987) DVDRip от MediaClub | КПК

24 | 2

386.9 МБ

В этой теме нет новых непрочитанных сообщений. Завтра была война (1987) DVDRip от Scarabey

94 | 20

1.44 ГБ

В этой теме нет новых непрочитанных сообщений. Завтра Война / Завтра война. Фактор К (2006 - 2007) РС | Lossless Repack

379 | 6

3.14 ГБ

В этой теме нет новых непрочитанных сообщений. Если завтра война (1938) DVDRip от New-Team

57 | 9

744.74 МБ

В этой теме нет новых непрочитанных сообщений. Если завтра война (1938) DVDRip-AVC от New-Team

72 | 9

743.98 МБ




Вы не можете начинать темы
Вы не можете отвечать на сообщения
Вы не можете редактировать свои сообщения
Вы не можете удалять свои сообщения
Вы не можете добавлять вложения

Перейти:  
Для Мосгорсуда, Роскомнадзора и рекламодателей: mosgorsud-torrent[собачка]yandex.ru
 Вход
ppkBB3cker v.2 © 2008-2014 @ PPK
[ Time : 0.025s | 15 Queries | GZIP : Off ]

Торрент трекер RUTOR.IN, Не можете зайти на rutor.org? Какой новый адрес рутор? Какое зеркало рутор? Не работает rutor.org и зеркала? Тогда наш торрент специально для вас. Rutor.in неофициальное зеркало rutor. В случае если у Вас заблокирован rutor или вдруг Вы не можете на него зайти, то Вы без труда сможете скачать бесплатно и без рекламы последние новинки кино, игр, сериалов и прочего у нас, на Rutor.in. Не нужно использовать прокси, чтобы зайти на рутор, достаточно воспользоваться нашим ресурсом. Все новые фильмы, игры, сериалы, книги и музыка за 2013 и 2014 годы через торрент бесплатно. Скачивайте фильмы в хорошем качестве, игры для пк, xbox, playstation без регистрации. У нас вы найдете новые Зарубежные сериалы и Русские сериалы 2013, 2014, 2015 годов. Оставайтесь с нами, качайте любимые фильмы, игры, сериалы, книги и музыку.
cron