img image001 image001 image001 image001 image001 image001 image001 image001 image001 image001 image001 image001 image001 image001 image001

Planets Sun Sun Sun
Статистика раздачи
Автор: Nickolas3434 | Размер: 2.4 ГБ | Добавлен: 25 ноя 2015
Раздают: 149    Качают: 27
Скачать торрент
Скачать торрент
Описание торрента

СообщениеДобавлено: 25 ноя 2015 


Информация о фильме
Название: Ёлки-палки!
Год выхода: 1988
Жанр: Комедия
Режиссер: Сергей Никоненко
В ролях: Сергей Никоненко, Екатерина Воронина, Галина Польских, Леонид Куравлёв, Евгений Евстигнеев, Леонид Ярмольник, Георгий Бурков, Светлана Орлова, Иван Рыжов, Вадим Захарченко, Андрей Вертоградов, Ирина Цывина, Виктор Незнанов, Вадим Курков
О фильме: Изобретателю Никоненко, занимающемуся реально ремонтом телевизоров, бог дал золотые руки и сердце, но с головой у бедняги - полная беда. Он постоянно мечтает о мировой славе (снятся собственные бюсты) и пишет трактат об устройстве государства, которое милостиво выдало ему два выходных. Проводит он их "целесообразно", наблюдая, например, в зоопарке гориллу, или забивая голову очередной жертве своими теориями. Школе-интернату он подарил собранный собственными руками цветной телевизор, а сестра (Польских) считает его чудаком и жаждет женить на своей подруге. Учит он всех жизни безаппеляционно, вызывая у людей раздражение, и из-за этого часто попадает в нелепые ситуации, вызывая у зрителя жгучее чувство стыда и неловкости.
Сыграны все персонажи просто блестяще. Сценарий к этой грустной комедии по мотивам рассказов Василия Шукшина написал исполнитель главной роли и режиссер Сергей Никоненко.
Страна: СССР, Киностудия им. М. Горького
Продолжительность: 01:24:15
Перевод: не требуется
Файл
Кодек: x264
Качество: DVDRip-AVC
Видео: MPEG-4 AVC, 3500 Кбит/с, 702x574@748x574
Звук: АС3, 6 ch, 448 Кбит/с, АС3, 1 ch, 128 Кбит/с
Субтитры: Русские

raw [info]: 702x574p 16:15 @ 25/1 fps (cfr)
x264 [info]: using SAR=16/15
x264 [info]: using cpu capabilities: MMX2 SSE2Fast SSSE3 SSE4.2 AVX
x264 [info]: profile High, level 4.1
x264 [info]: frame I:684 Avg QP:18.31 size: 86581
x264 [info]: frame P:36420 Avg QP:21.94 size: 34019
x264 [info]: frame B:89268 Avg QP:23.93 size: 10230
========================================================================================================
Общее
Уникальный идентификатор : 238608678770575401425590503250413109725 (0xB3825C2541B92BC48EFE9ABA6C3A41DD)
Полное имя : D:Ёлки-палки_1988-DVDRip-AVC.mkv
Формат : Matroska
Версия формата : Version 2
Размер файла : 2,40 Гбайт
Продолжительность : 1 ч. 24 м.
Общий поток : 4080 Кбит/сек
Дата кодирования : UTC 2015-11-23 19:48:21
Программа кодирования : mkvmerge v5.8.0 ('No Sleep / Pillow') built on Sep 2 2012 15:37:04
Библиотека кодирования : libebml v1.2.3 + libmatroska v1.3.0
Видео
Идентификатор : 1
Формат : AVC
Формат/Информация : Advanced Video Codec
Профиль формата : High@L4.1
Параметр CABAC формата : Да
Параметр ReFrames формата : 13 кадров
Идентификатор кодека : V_MPEG4/ISO/AVC
Продолжительность : 1 ч. 24 м.
Битрейт : 3500 Кбит/сек
Ширина : 702 пикселя
Высота : 574 пикселя
Соотношение сторон : 4:3
Соотношение сторон в оригинале : 4:3
Режим частоты кадров : Постоянный
Частота кадров : 25,000 кадров/сек
Цветовое пространство : YUV
Субдискретизация насыщенности : 4:2:0
Битовая глубина : 8 бит
Тип развёртки : Прогрессивная
Бит/(Пиксели*Кадры) : 0.347
Размер потока : 2,01 Гбайт (84%)
Библиотека кодирования : x264 core 148 r2579 73ae2d1
Настройки программы : cabac=1 / ref=13 / deblock=1:-2:-2 / analyse=0x3:0x133 / me=umh / subme=10 / psy=1 / psy_rd=1.05:0.15 / mixed_ref=1 / me_range=32 / chroma_me=1 / trellis=2 / 8x8dct=1 / cqm=0 / deadzone=21,11 / fast_pskip=0 / chroma_qp_offset=-3 / threads=12 / lookahead_threads=2 / sliced_threads=0 / nr=0 / decimate=0 / interlaced=0 / bluray_compat=0 / constrained_intra=0 / bframes=9 / b_pyramid=2 / b_adapt=2 / b_bias=0 / direct=3 / weightb=1 / open_gop=0 / weightp=2 / keyint=250 / keyint_min=25 / scenecut=40 / intra_refresh=0 / rc=2pass / mbtree=0 / bitrate=3500 / ratetol=1.0 / qcomp=0.63 / qpmin=0 / qpmax=39 / qpstep=4 / cplxblur=20.0 / qblur=0.5 / ip_ratio=1.40 / pb_ratio=1.30 / aq=1:1.00
Язык : English
Default : Да
Forced : Нет
Цветовой диапазон : Limited
Основные цвета : BT.601 PAL
Характеристики трансфера : BT.470 System B, BT.470 System G
Коэффициенты матрицы : BT.601
Аудио #1
Идентификатор : 2
Формат : AC-3
Формат/Информация : Audio Coding 3
Расширение режима : CM (complete main)
Параметр Endianness формата : Big
Идентификатор кодека : A_AC3
Продолжительность : 1 ч. 24 м.
Вид битрейта : Постоянный
Битрейт : 448 Кбит/сек
Каналы : 6 каналов
Расположение каналов : Front: L C R, Side: L R, LFE
Частота : 48,0 КГц
Метод сжатия : С потерями
Задержка видео : 560 мс.
Размер потока : 270 Мбайт (11%)
Язык : Russian
Default : Да
Forced : Нет
Аудио #2
Идентификатор : 3
Формат : AC-3
Формат/Информация : Audio Coding 3
Расширение режима : CM (complete main)
Параметр Endianness формата : Big
Идентификатор кодека : A_AC3
Продолжительность : 1 ч. 24 м.
Вид битрейта : Постоянный
Битрейт : 128 Кбит/сек
Каналы : 1 канал
Расположение каналов : Front: C
Частота : 48,0 КГц
Метод сжатия : С потерями
Задержка видео : 562 мс.
Размер потока : 77,1 Мбайт (3%)
Язык : Russian
Default : Нет
Forced : Нет
Текст
Идентификатор : 4
Формат : VobSub
Режим смешивания : zlib
Идентификатор кодека : S_VOBSUB
Идентификатор кодека/Информация : Picture based subtitle format used on DVDs
Язык : Russian
Default : Нет
Forced : Нет

Релиз от:
Автор релиза:



   Похожие торренты   Торрент   Размер 
В этой теме нет новых непрочитанных сообщений. Ёлки-Палки!... (1988) DVDRip

14 | 8

778.14 МБ

В этой теме нет новых непрочитанных сообщений. Ёлки-палки!.. (1988) DVDRip от Amber

41 | 13

1.36 ГБ

В этой теме нет новых непрочитанных сообщений. Куколка (1988) DVDRip от ExKinoRay

130 | 21

1.77 ГБ

В этой теме нет новых непрочитанных сообщений. Медведь / L' Ours (1988) DVDRip - ExKinoRay

38 | 3

1.37 ГБ

В этой теме нет новых непрочитанных сообщений. Криминальный талант (1988) DVDRip-AVC от ExKinoRay

31 | 3

2.8 ГБ

В этой теме нет новых непрочитанных сообщений. Маленькая Вера (1988) DVDRip-AVC от ExKinoRay

221 | 32

2.77 ГБ

В этой теме нет новых непрочитанных сообщений. Обвиняемые / The Accused (1988) DVDRip-AVC - ExKinoRay

4 | 1

2.52 ГБ




Вы не можете начинать темы
Вы не можете отвечать на сообщения
Вы не можете редактировать свои сообщения
Вы не можете удалять свои сообщения
Вы не можете добавлять вложения

Перейти:  
Для Мосгорсуда, Роскомнадзора и рекламодателей: mosgorsud-torrent[собачка]yandex.ru
 Вход
ppkBB3cker v.2 © 2008-2014 @ PPK
[ Time : 0.023s | 14 Queries | GZIP : Off ]

Торрент трекер RUTOR.IN, Не можете зайти на rutor.org? Какой новый адрес рутор? Какое зеркало рутор? Не работает rutor.org и зеркала? Тогда наш торрент специально для вас. Rutor.in неофициальное зеркало rutor. В случае если у Вас заблокирован rutor или вдруг Вы не можете на него зайти, то Вы без труда сможете скачать бесплатно и без рекламы последние новинки кино, игр, сериалов и прочего у нас, на Rutor.in. Не нужно использовать прокси, чтобы зайти на рутор, достаточно воспользоваться нашим ресурсом. Все новые фильмы, игры, сериалы, книги и музыка за 2013 и 2014 годы через торрент бесплатно. Скачивайте фильмы в хорошем качестве, игры для пк, xbox, playstation без регистрации. У нас вы найдете новые Зарубежные сериалы и Русские сериалы 2013, 2014, 2015 годов. Оставайтесь с нами, качайте любимые фильмы, игры, сериалы, книги и музыку.