img image001 image001 image001 image001 image001 image001 image001 image001 image001 image001 image001 image001 image001 image001 image001

Planets Sun Sun Sun
Статистика раздачи
Автор: Nickolas3434 | Размер: 1.21 ГБ | Добавлен: 25 ноя 2015
Раздают: 274    Качают: 33
Скачать торрент
Скачать торрент
Описание торрента

СообщениеДобавлено: 25 ноя 2015 


Информация о фильме
Название: Искренне ваш...
Год выхода: 1985
Жанр: Комедия
Режиссер: Алла Сурикова
В ролях: Виталий Соломин, Вера Глаголева, Виктор Ильчёв, Ролан Быков, Армен Джигарханян, Лариса Удовиченко, Николай Парфёнов, Леонид Куравлёв, Ирина Шмелёва, Елена Санаева, Нина Маслова, Сергей Мигицко, Валентин Смирнитский, Наталья Захарова
О фильме: Когда-то герой фильма был астрономом, не замечавшим ничего, кроме звездного неба над головой. Но, однажды, волею случая, он открывает в себе талант, который превращает его самого в настоящую «звезду». В душе оставаясь звездочетом, он становится непревзойденным мастером по добыванию дефицита и преодолению трудностей быта. Однажды сломался объектив, Паша пошел его доставать и вошел во вкус процесса "доставания". Ловко бросаясь под автомобиль нужного человека, получил легкий удар "по касательной". Тот попадает к нему "на крючок" и делает то, что герою нужно. Действие происходит в годы "застоя", когда связи решали все вопросы. Добрынин влюбляется в молодую актрису и обещает пробить ей главную роль в театре. Он ловок, обаятелен, симпатичен. А какой взгляд! Может растопить любое сердце. С Катей он решает начать новую жизнь, но вот получится ли?
Страна: СССР, Мосфильм
Продолжительность: 01:21:05
Перевод: не требуется
Файл
Кодек: x264
Качество: SATRip-AVC
Видео: MPEG-4, 1950 Кбит/с, 686x554@732x554
Звук: AC3, 2 ch, 192 Кбит/с

raw [info]: 686x554p 16:15 @ 25/1 fps (cfr)
x264 [info]: using SAR=16/15
x264 [info]: using cpu capabilities: MMX2 SSE2Fast SSSE3 SSE4.2 AVX
x264 [info]: profile High, level 4.1
x264 [info]: frame I:670 Avg QP:15.48 size: 71940
x264 [info]: frame P:27532 Avg QP:18.82 size: 26898
x264 [info]: frame B:93372 Avg QP:21.33 size: 4247
==========================================================================================================
Общее
Уникальный идентификатор : 177499908394417714881272651346394669668 (0x85893D269A48BE918C46874FC3C6E264)
Полное имя : D:Искренне ваш_1985-SATRip-AVC.mkv
Формат : Matroska
Версия формата : Version 2
Размер файла : 1,21 Гбайт
Продолжительность : 1 ч. 21 м.
Общий поток : 2144 Кбит/сек
Дата кодирования : UTC 2015-11-23 07:53:30
Программа кодирования : mkvmerge v5.8.0 ('No Sleep / Pillow') built on Sep 2 2012 15:37:04
Библиотека кодирования : libebml v1.2.3 + libmatroska v1.3.0
Видео
Идентификатор : 1
Формат : AVC
Формат/Информация : Advanced Video Codec
Профиль формата : High@L4.1
Параметр CABAC формата : Да
Параметр ReFrames формата : 13 кадров
Идентификатор кодека : V_MPEG4/ISO/AVC
Продолжительность : 1 ч. 21 м.
Битрейт : 1950 Кбит/сек
Ширина : 686 пикселей
Высота : 554 пикселя
Соотношение сторон : 4:3
Режим частоты кадров : Постоянный
Частота кадров : 25,000 кадров/сек
Цветовое пространство : YUV
Субдискретизация насыщенности : 4:2:0
Битовая глубина : 8 бит
Тип развёртки : Прогрессивная
Бит/(Пиксели*Кадры) : 0.205
Размер потока : 1,08 Гбайт (89%)
Библиотека кодирования : x264 core 148 r2579 73ae2d1
Настройки программы : cabac=1 / ref=13 / deblock=1:-2:-2 / analyse=0x3:0x133 / me=umh / subme=10 / psy=1 / psy_rd=1.05:0.15 / mixed_ref=1 / me_range=32 / chroma_me=1 / trellis=2 / 8x8dct=1 / cqm=0 / deadzone=21,11 / fast_pskip=0 / chroma_qp_offset=-3 / threads=12 / lookahead_threads=2 / sliced_threads=0 / nr=0 / decimate=0 / interlaced=0 / bluray_compat=0 / constrained_intra=0 / bframes=8 / b_pyramid=2 / b_adapt=2 / b_bias=0 / direct=3 / weightb=1 / open_gop=0 / weightp=2 / keyint=250 / keyint_min=25 / scenecut=40 / intra_refresh=0 / rc_lookahead=40 / rc=2pass / mbtree=1 / bitrate=1950 / ratetol=1.0 / qcomp=0.65 / qpmin=0 / qpmax=39 / qpstep=4 / cplxblur=20.0 / qblur=0.5 / ip_ratio=1.40 / aq=1:1.00
Язык : English
Default : Да
Forced : Нет
Цветовой диапазон : Limited
Основные цвета : BT.601 PAL
Характеристики трансфера : BT.470 System B, BT.470 System G
Коэффициенты матрицы : BT.601
Аудио
Идентификатор : 2
Формат : AC-3
Формат/Информация : Audio Coding 3
Расширение режима : CM (complete main)
Параметр Endianness формата : Big
Идентификатор кодека : A_AC3
Продолжительность : 1 ч. 21 м.
Вид битрейта : Постоянный
Битрейт : 192 Кбит/сек
Каналы : 2 канала
Расположение каналов : Front: L R
Частота : 48,0 КГц
Метод сжатия : С потерями
Размер потока : 111 Мбайт (9%)
Язык : Russian
Default : Да
Forced : Нет

Релиз от:
Автор релиза:



   Похожие торренты   Торрент   Размер 
В этой теме нет новых непрочитанных сообщений. Искренне ваш... (1985) DVDRip от Киномагия

9 | 6

1.17 ГБ

В этой теме нет новых непрочитанных сообщений. Противостояние [01-05 из 05] (1985) SATRip-AVC от ExKinoRay

271 | 60

6.21 ГБ

В этой теме нет новых непрочитанных сообщений. Цыган [4 из 4] + Возвращение Будулая [5 из 5] (1979, 1985) SATRip-AVC от ExKinoRay

131 | 41

12.71 ГБ

В этой теме нет новых непрочитанных сообщений. Иди и смотри (1985) BDRip от ExKinoRay

92 | 4

2 ГБ

В этой теме нет новых непрочитанных сообщений. Сильверадо / Silverado (1985) DVDRip от ExKinoRay

3 | 4

2.54 ГБ

В этой теме нет новых непрочитанных сообщений. Сильверадо / Silverado (1985) BDRip-AVC от ExKinoRay

22 | 2

3.49 ГБ

В этой теме нет новых непрочитанных сообщений. Одиночное плавание (1985) DVDRip-AVC от ExKinoRay

290 | 23

1.64 ГБ




Вы не можете начинать темы
Вы не можете отвечать на сообщения
Вы не можете редактировать свои сообщения
Вы не можете удалять свои сообщения
Вы не можете добавлять вложения

Перейти:  
Для Мосгорсуда, Роскомнадзора и рекламодателей: mosgorsud-torrent[собачка]yandex.ru
 Вход
ppkBB3cker v.2 © 2008-2014 @ PPK
[ Time : 1.959s | 13 Queries | GZIP : Off ]
CGP output time : 0.023s | 5 Queries | GZIP : Off

Торрент трекер RUTOR.IN, Не можете зайти на rutor.org? Какой новый адрес рутор? Какое зеркало рутор? Не работает rutor.org и зеркала? Тогда наш торрент специально для вас. Rutor.in неофициальное зеркало rutor. В случае если у Вас заблокирован rutor или вдруг Вы не можете на него зайти, то Вы без труда сможете скачать бесплатно и без рекламы последние новинки кино, игр, сериалов и прочего у нас, на Rutor.in. Не нужно использовать прокси, чтобы зайти на рутор, достаточно воспользоваться нашим ресурсом. Все новые фильмы, игры, сериалы, книги и музыка за 2013 и 2014 годы через торрент бесплатно. Скачивайте фильмы в хорошем качестве, игры для пк, xbox, playstation без регистрации. У нас вы найдете новые Зарубежные сериалы и Русские сериалы 2013, 2014, 2015 годов. Оставайтесь с нами, качайте любимые фильмы, игры, сериалы, книги и музыку.