img image001 image001 image001 image001 image001 image001 image001 image001 image001 image001 image001 image001 image001 image001 image001

Planets Sun Sun Sun
Статистика раздачи
Автор: Nickolas3434 | Размер: 1.52 ГБ | Добавлен: 25 ноя 2015
Раздают: 115    Качают: 21
Скачать торрент
Скачать торрент
Описание торрента

СообщениеДобавлено: 25 ноя 2015 


Информация о фильме
Название: Акция
Год выхода: 1987
Жанр: Боевик, военный
Режиссер: Владимир Шамшурин
В ролях: Борис Галкин, Георгий Юматов, Олег Стриженов, Александр Новиков, Артём Каминский, Борис Никифоров, Сергей Десницкий, Виталий Зикора, Александр Январёв, Владимир Мышкин, Евгений Дегтяренко, Надежда Матушкина, Николай Симкин, Виталий Яковлев, Виктор Рождественский, Екатерина Васильева, Андрей Карташов, Сергей Волкош, Юрий Михеенков
О фильме: Лето 1943 года. Советскому командованию становится известно, что на оккупированной территории Украины действует специальная разведшкола по подготовке разведчиков и диверсантов, одним из руководителей и преподавателей которой работает предатель Родины, опытный разведчик Кареев. Для нейтрализации немецкой разведбазы было решено изъять ее архив…
Страна: СССР, Мосфильм
Продолжительность: 01:26:20
Перевод: не требуется
Файл
Кодек: x264
Качество: SATRip-AVC
Видео: MPEG-4 AVC, 2323 Кбит/с, 704x330@768x330
Звук: AC3, 2 ch, 192 Кбит/с

raw [info]: 704x330p 12:11 @ 25/1 fps (cfr)
x264 [info]: using SAR=12/11
x264 [info]: using cpu capabilities: MMX2 SSE2Fast SSSE3 SSE4.2 AVX
x264 [info]: profile High, level 4.1
x264 [info]: frame I:43 Avg QP:14.36 size: 57168
x264 [info]: frame P:665 Avg QP:18.29 size: 22810
x264 [info]: frame B:1806 Avg QP:20.23 size: 6392
====================================================================================================
Общее
Уникальный идентификатор : 221460532341799231648828129712949313711 (0xA69BBF4038D915BB8F2B1C4136CA40AF)
Полное имя : D:Акция_1987-SATRip-AVC.mkv
Формат : Matroska
Версия формата : Version 2
Размер файла : 1,52 Гбайт
Продолжительность : 1 ч. 26 м.
Общий поток : 2517 Кбит/сек
Дата кодирования : UTC 2015-11-22 10:26:11
Программа кодирования : mkvmerge v5.8.0 ('No Sleep / Pillow') built on Sep 2 2012 15:37:04
Библиотека кодирования : libebml v1.2.3 + libmatroska v1.3.0
Видео
Идентификатор : 1
Формат : AVC
Формат/Информация : Advanced Video Codec
Профиль формата : High@L4.1
Параметр CABAC формата : Да
Параметр ReFrames формата : 15 кадров
Идентификатор кодека : V_MPEG4/ISO/AVC
Продолжительность : 1 ч. 26 м.
Битрейт : 2323 Кбит/сек
Ширина : 704 пикселя
Высота : 330 пикселей
Соотношение сторон : 2,35:1
Режим частоты кадров : Постоянный
Частота кадров : 25,000 кадров/сек
Цветовое пространство : YUV
Субдискретизация насыщенности : 4:2:0
Битовая глубина : 8 бит
Тип развёртки : Прогрессивная
Бит/(Пиксели*Кадры) : 0.400
Размер потока : 1,37 Гбайт (90%)
Библиотека кодирования : x264 core 146 r2538 121396c
Настройки программы : cabac=1 / ref=15 / deblock=1:-2:-2 / analyse=0x3:0x133 / me=umh / subme=10 / psy=1 / psy_rd=1.05:0.15 / mixed_ref=1 / me_range=32 / chroma_me=1 / trellis=2 / 8x8dct=1 / cqm=0 / deadzone=21,11 / fast_pskip=0 / chroma_qp_offset=-3 / threads=12 / lookahead_threads=2 / sliced_threads=0 / nr=0 / decimate=0 / interlaced=0 / bluray_compat=0 / constrained_intra=0 / bframes=10 / b_pyramid=2 / b_adapt=2 / b_bias=0 / direct=3 / weightb=1 / open_gop=0 / weightp=2 / keyint=250 / keyint_min=25 / scenecut=40 / intra_refresh=0 / rc=2pass / mbtree=0 / bitrate=2323 / ratetol=1.0 / qcomp=0.63 / qpmin=0 / qpmax=39 / qpstep=4 / cplxblur=20.0 / qblur=0.5 / ip_ratio=1.40 / pb_ratio=1.30 / aq=1:1.00
Язык : English
Default : Да
Forced : Нет
Цветовой диапазон : Limited
Основные цвета : BT.601 PAL
Характеристики трансфера : BT.470 System B, BT.470 System G
Коэффициенты матрицы : BT.601
Аудио
Идентификатор : 2
Формат : AC-3
Формат/Информация : Audio Coding 3
Расширение режима : CM (complete main)
Параметр Endianness формата : Big
Идентификатор кодека : A_AC3
Продолжительность : 1 ч. 26 м.
Вид битрейта : Постоянный
Битрейт : 192 Кбит/сек
Каналы : 2 канала
Расположение каналов : Front: L R
Частота : 48,0 КГц
Метод сжатия : С потерями
Задержка видео : 16 мс.
Размер потока : 119 Мбайт (8%)
Язык : Russian
Default : Да
Forced : Нет

Релиз от:
Автор релиза:



   Похожие торренты   Торрент   Размер 
В этой теме нет новых непрочитанных сообщений. Акция (1987) SATRip от New-Team

120 | 25

744.5 МБ

В этой теме нет новых непрочитанных сообщений. Акция (1987) SATRip-AVC от New-Team

83 | 10

1.46 ГБ

В этой теме нет новых непрочитанных сообщений. Акция (1987) SATRip от New-Team

116 | 42

1.46 ГБ

В этой теме нет новых непрочитанных сообщений. Акция (1987) DVD-5

12 | 8

3.86 ГБ

В этой теме нет новых непрочитанных сообщений. Акция (1987) DVDRip

27 | 4

1.37 ГБ

В этой теме нет новых непрочитанных сообщений. Жадность. Внимание: акция! [эфир от 18.10] (2011) SATRip от RiperAM

0 | 2

498.83 МБ

В этой теме нет новых непрочитанных сообщений. Раз на раз не приходится (1987) SATRip-AVC от ExKinoRay

133 | 24

1.31 ГБ




Вы не можете начинать темы
Вы не можете отвечать на сообщения
Вы не можете редактировать свои сообщения
Вы не можете удалять свои сообщения
Вы не можете добавлять вложения

Перейти:  
Для Мосгорсуда, Роскомнадзора и рекламодателей: mosgorsud-torrent[собачка]yandex.ru
 Вход
ppkBB3cker v.2 © 2008-2014 @ PPK
[ Time : 0.055s | 14 Queries | GZIP : Off ]

Торрент трекер RUTOR.IN, Не можете зайти на rutor.org? Какой новый адрес рутор? Какое зеркало рутор? Не работает rutor.org и зеркала? Тогда наш торрент специально для вас. Rutor.in неофициальное зеркало rutor. В случае если у Вас заблокирован rutor или вдруг Вы не можете на него зайти, то Вы без труда сможете скачать бесплатно и без рекламы последние новинки кино, игр, сериалов и прочего у нас, на Rutor.in. Не нужно использовать прокси, чтобы зайти на рутор, достаточно воспользоваться нашим ресурсом. Все новые фильмы, игры, сериалы, книги и музыка за 2013 и 2014 годы через торрент бесплатно. Скачивайте фильмы в хорошем качестве, игры для пк, xbox, playstation без регистрации. У нас вы найдете новые Зарубежные сериалы и Русские сериалы 2013, 2014, 2015 годов. Оставайтесь с нами, качайте любимые фильмы, игры, сериалы, книги и музыку.