img image001 image001 image001 image001 image001 image001 image001 image001 image001 image001 image001 image001 image001 image001 image001

Planets Sun Sun Sun
Статистика раздачи
Автор: Nickolas3434 | Размер: 1.45 ГБ | Добавлен: 25 ноя 2015
Раздают: 28    Качают: 29
Скачать торрент
Скачать торрент
Описание торрента

СообщениеДобавлено: 25 ноя 2015 


Информация о фильме
Название: Потому что люблю
Год выхода: 1974
Жанр: драма
Режиссер: Игорь Добролюбов
В ролях: Геннадий Корольков, Василий Бочкарёв, Валентина Теличкина, Наталья Гвоздикова, Наталья Величко, Александра Климова, Николай Рыбников, Юрий Кузьменков, Гена Киселев, Серёжа Киселёв, Антон Корольков, Владимир Антоник, Александр Беспалый, Борис Борисёнок, Ростислав Шмырёв, Владимир Грицевский, Владимир Сичкарь, Нина Розанцева, Шавкат Газиев
О фильме:
О летчиках-истребителях 70-х годов.
Летчик-истребитель Николай Муравьев переживает личную драму: жена с сыном уехали на материк - надоела им жизнь за Полярным кругом. Полковник Белый, подумав о том, что жена вернется к мужу, если тот будет служить на материке, посылает Николая в командировку. В новой части Муравьев встречает своего сокурсника Евгения Шелеста. Друзьям предстоит летать в паре...
За 30 лет режиссерской работы Игорь Добролюбов снял 18 картин. Среди них "По секрету всему свету", "Третьего не дано", "Расписание на послезавтра". А один из первых фильмов Добролюбова " Иван Макарович " стал призером престижнейшего Венецианского фестиваля «За лучшее воплощение темы войны». Игорь Михайлович признается, что стал режиссером исключительно благодаря Михаилу Ромму, в мастерской которого Добролюбов учился во ВГИКе. До сих пор, делясь секретами мастерства, Игорь Добролюбов цитирует Ромма: "Ребята, никогда не называйте себя художниками. Это неприлично. Пусть художниками вас назовут другие. Вот на этом я и живу". Дома у Игоря Добролюбова хранится коробочка с наградами режиссера: орден Трудового Красного Знамени, народный артист Белоруссии, лауреат многих премий. Впрочем, к званиям Игорь Михайлович всегда относился спокойно. Ко всем кроме одного. Это звание мастера спорта по легкой атлетике.
Доп. информация:
Сценаристы: Аркадий Пинчук, Вадим Трунин
Оператор: Григорий Масальский
Композитор: Ян Френкель
Художник: Владимир Белоусов

Запись потока *.ts с наземного цифрового телеканала "Беларусь 3", ремукс в *.mkv программой VideoReDo.

Страна: Белорусская ССР
Студия: Беларусьфильм
Продолжительность: 01:23:07
Файл
Кодек: AVC (H264)
Качество: DVB
Видео: MPEG4 Video (H264) 720x576 (49:36) 25fps, 2 192 Kbps
Звук: MPEG Audio 48000Hz stereo 256kbps
Семпл
Код:
General
Unique ID                      : 236492077451318284354694898437495978933 (0xB1EAB7A4BBC785BA8BCFD64AE1B3FBB5)
Complete name                  : D:Новая  земля 2Художественные фильмыПотому что люблю (1974)Потому что люблю (1974).mkv
Format                         : Matroska
Format version                 : Version 4 / Version 2
File size                      : 1.45 GiB
Duration                       : 1h 23mn
Overall bit rate               : 2 498 Kbps
Encoded date                   : UTC 2015-11-24 14:25:11
Writing application            : mkvmerge v8.5.1 ('Where you lead I will follow') 32bit
Writing library                : libebml v1.3.3 + libmatroska v1.4.4
Video
ID                             : 1
Format                         : AVC
Format/Info                    : Advanced Video Codec
Format profile                 : Main@L3.0
Format settings, CABAC         : Yes
Format settings, ReFrames      : 4 frames
Format settings, GOP           : M=4, N=24
Codec ID                       : V_MPEG4/ISO/AVC
Duration                       : 1h 23mn
Bit rate                       : 2 192 Kbps
Width                          : 720 pixels
Height                         : 576 pixels
Display aspect ratio           : 4:3
Original display aspect ratio  : 4:3
Frame rate mode                : Constant
Frame rate                     : 25.000 fps
Standard                       : PAL
Color space                    : YUV
Chroma subsampling             : 4:2:0
Bit depth                      : 8 bits
Scan type                      : MBAFF
Scan order                     : Top Field First
Bits/(Pixel*Frame)             : 0.211
Stream size                    : 1.27 GiB (88%)
Default                        : Yes
Forced                         : No
Color primaries                : BT.601 PAL
Transfer characteristics       : BT.470 System B, BT.470 System G
Matrix coefficients            : BT.601
Color range                    : Limited
DURATION                       : 01:23:06.600000000
NUMBER_OF_FRAMES               : 124665
NUMBER_OF_BYTES                : 1395992049
_STATISTICS_WRITING_APP        : mkvmerge v8.5.1 ('Where you lead I will follow') 32bit
_STATISTICS_WRITING_DATE_UTC   : 2015-11-24 14:25:11
_STATISTICS_TAGS               : BPS DURATION NUMBER_OF_FRAMES NUMBER_OF_BYTES
Audio
ID                             : 2
Format                         : MPEG Audio
Format version                 : Version 1
Format profile                 : Layer 2
Codec ID                       : A_MPEG/L2
Codec ID/Hint                  : MP2
Duration                       : 1h 23mn
Bit rate mode                  : Constant
Bit rate                       : 256 Kbps
Channel(s)                     : 2 channels
Sampling rate                  : 48.0 KHz
Compression mode               : Lossy
Delay relative to video        : 300ms
Stream size                    : 152 MiB (10%)
Language                       : English
Default                        : Yes
Forced                         : No
DURATION                       : 01:23:06.600000000
NUMBER_OF_FRAMES               : 207775
NUMBER_OF_BYTES                : 159571200
_STATISTICS_WRITING_APP        : mkvmerge v8.5.1 ('Where you lead I will follow') 32bit
_STATISTICS_WRITING_DATE_UTC   : 2015-11-24 14:25:11
_STATISTICS_TAGS               : BPS DURATION NUMBER_OF_FRAMES NUMBER_OF_BYTES





   Похожие торренты   Торрент   Размер 
В этой теме нет новых непрочитанных сообщений. Смеюсь... плачу... люблю... / Хорошки (2008) SATRip от AND03AND

4 | 8

631.26 МБ

В этой теме нет новых непрочитанных сообщений. Потому что люблю (1974) TVRip

5 | 6

917.29 МБ

В этой теме нет новых непрочитанных сообщений. Потому что люблю (1974) SATRip от Лумина

1 | 0

1.09 ГБ

В этой теме нет новых непрочитанных сообщений. Неоткрытые острова (1974) SATRip от AND03AND

35 | 7

1.08 ГБ

В этой теме нет новых непрочитанных сообщений. Предельно личные отношения: Песня любви 1974 года / Gokushiteki Erosu: Renka 1974 (1974) DVDRip | Sub

37 | 118

1.07 ГБ

В этой теме нет новых непрочитанных сообщений. Люблю, потому что люблю (2012) IPTVRip от Files-x

48 | 9

1.31 ГБ

В этой теме нет новых непрочитанных сообщений. Я тебя люблю, я тоже не люблю / Я тебя люблю, я тебя тоже...нет / Je t'aime moi non plus (1976) DVDRip | L1 от AndreSweet

42 | 5

1.37 ГБ




Вы не можете начинать темы
Вы не можете отвечать на сообщения
Вы не можете редактировать свои сообщения
Вы не можете удалять свои сообщения
Вы не можете добавлять вложения

Перейти:  
Для Мосгорсуда, Роскомнадзора и рекламодателей: mosgorsud-torrent[собачка]yandex.ru
 Вход
ppkBB3cker v.2 © 2008-2014 @ PPK
[ Time : 0.035s | 14 Queries | GZIP : Off ]

Торрент трекер RUTOR.IN, Не можете зайти на rutor.org? Какой новый адрес рутор? Какое зеркало рутор? Не работает rutor.org и зеркала? Тогда наш торрент специально для вас. Rutor.in неофициальное зеркало rutor. В случае если у Вас заблокирован rutor или вдруг Вы не можете на него зайти, то Вы без труда сможете скачать бесплатно и без рекламы последние новинки кино, игр, сериалов и прочего у нас, на Rutor.in. Не нужно использовать прокси, чтобы зайти на рутор, достаточно воспользоваться нашим ресурсом. Все новые фильмы, игры, сериалы, книги и музыка за 2013 и 2014 годы через торрент бесплатно. Скачивайте фильмы в хорошем качестве, игры для пк, xbox, playstation без регистрации. У нас вы найдете новые Зарубежные сериалы и Русские сериалы 2013, 2014, 2015 годов. Оставайтесь с нами, качайте любимые фильмы, игры, сериалы, книги и музыку.