img image001 image001 image001 image001 image001 image001 image001 image001 image001 image001 image001 image001 image001 image001 image001

Planets Sun Sun Sun
Статистика раздачи
Автор: Nickolas3434 | Размер: 1.43 ГБ | Добавлен: 26 ноя 2015
Раздают: 72    Качают: 11
Скачать торрент
Скачать торрент
Описание торрента

СообщениеДобавлено: 26 ноя 2015 


Информация о фильме
Название: Какая чудная игра
Год выхода: 1985
Жанр: Драма
Режиссер: Петр Тодоровский
В ролях: Андрей Ильин, Геннадий Назаров, Дэнис Константинов, Геннадий Митник, Елена Яковлева, Лариса Удовиченко, Николай Бурляев, Юрий Кузнецов, Михаил Дорожкин, Мария Шукшина
О фильме: История четырех молодых людей, живущих в загородном общежитии института искусств. Они талантливы, изобретательны, склонны к импровизации и розыгрышам. Они живут весело, хотя и впроголодь, любят, страдают, и настолько заигрываются в свои игры, что забывают - в какое страшное время они живут. Это было начало пятидесятых, еще был жив Сталин...
Страна: Россия
Продолжительность: 01:32:17
Перевод: не требуется
Файл
Кодек: x264
Качество: DVDRip-AVC
Видео: MPEG-4 AVC, 1830 Кбит/с, 696x572@742x572
Звук: AC3, 6 ch, 384 Кбит/с

Общее
Уникальный идентификатор : 231960593571755730718503584281701003632 (0xAE81FC3D2140CC89A0787A924AFA3170)
Полное имя : D:Какая чудная игра_1995-DVDRip-AVC.mkv
Формат : Matroska
Версия формата : Version 2
Размер файла : 1,43 Гбайт
Продолжительность : 1 ч. 32 м.
Общий поток : 2216 Кбит/сек
Дата кодирования : UTC 2015-11-24 13:11:56
Программа кодирования : mkvmerge v5.8.0 ('No Sleep / Pillow') built on Sep 2 2012 15:37:04
Библиотека кодирования : libebml v1.2.3 + libmatroska v1.3.0
Видео
Идентификатор : 1
Формат : AVC
Формат/Информация : Advanced Video Codec
Профиль формата : High@L4.1
Параметр CABAC формата : Да
Параметр ReFrames формата : 14 кадров
Идентификатор кодека : V_MPEG4/ISO/AVC
Продолжительность : 1 ч. 32 м.
Битрейт : 1830 Кбит/сек
Ширина : 696 пикселей
Высота : 572 пикселя
Соотношение сторон : 1,297
Соотношение сторон в оригинале : 1,298
Режим частоты кадров : Постоянный
Частота кадров : 25,000 кадров/сек
Цветовое пространство : YUV
Субдискретизация насыщенности : 4:2:0
Битовая глубина : 8 бит
Тип развёртки : Прогрессивная
Бит/(Пиксели*Кадры) : 0.184
Размер потока : 1,15 Гбайт (81%)
Библиотека кодирования : x264 core 148 r2579 73ae2d1
Настройки программы : cabac=1 / ref=14 / deblock=1:-2:-2 / analyse=0x3:0x133 / me=umh / subme=10 / psy=1 / psy_rd=1.05:0.12 / mixed_ref=1 / me_range=32 / chroma_me=1 / trellis=2 / 8x8dct=1 / cqm=0 / deadzone=21,11 / fast_pskip=0 / chroma_qp_offset=-3 / threads=12 / lookahead_threads=3 / sliced_threads=0 / nr=0 / decimate=0 / interlaced=0 / bluray_compat=0 / constrained_intra=0 / bframes=10 / b_pyramid=2 / b_adapt=2 / b_bias=0 / direct=3 / weightb=1 / open_gop=0 / weightp=2 / keyint=250 / keyint_min=25 / scenecut=40 / intra_refresh=0 / rc=2pass / mbtree=0 / bitrate=1830 / ratetol=1.0 / qcomp=0.63 / qpmin=0 / qpmax=39 / qpstep=4 / cplxblur=20.0 / qblur=0.5 / ip_ratio=1.40 / pb_ratio=1.30 / aq=1:1.00
Язык : English
Default : Да
Forced : Нет
Цветовой диапазон : Limited
Основные цвета : BT.601 PAL
Характеристики трансфера : BT.470 System B, BT.470 System G
Коэффициенты матрицы : BT.601
Аудио
Идентификатор : 2
Формат : AC-3
Формат/Информация : Audio Coding 3
Расширение режима : CM (complete main)
Параметр Endianness формата : Big
Идентификатор кодека : A_AC3
Продолжительность : 1 ч. 32 м.
Вид битрейта : Постоянный
Битрейт : 384 Кбит/сек
Каналы : 6 каналов
Расположение каналов : Front: L C R, Side: L R, LFE
Частота : 48,0 КГц
Метод сжатия : С потерями
Размер потока : 253 Мбайт (17%)
Язык : Russian
Default : Да
Forced : Нет

Релиз от:
Автор релиза:



   Похожие торренты   Торрент   Размер 
В этой теме нет новых непрочитанных сообщений. Какая чудная игра (1995) DVDRip от Pshichko66

140 | 75

1.46 ГБ

В этой теме нет новых непрочитанных сообщений. Чудная долина (2004) DVDRip от КинозалSAT

34 | 4

1.37 ГБ

В этой теме нет новых непрочитанных сообщений. Финал НБА 1995 Орландо Меджик - Хьюстон Рокетс / NBA Final 1995 (Orlando Magic vs Houston Rockets) 1 игра серии (1995) TVRip

6 | 6

1.38 ГБ

В этой теме нет новых непрочитанных сообщений. Честная игра / Fair Game (1995) DVDRip | D

45 | 2

745.16 МБ

В этой теме нет новых непрочитанных сообщений. Честная игра / Fair Game (1995) DVDRip

7 | 4

1.77 ГБ

В этой теме нет новых непрочитанных сообщений. Честная игра / Fair Game (1995) DVDRip

33 | 3

1.83 ГБ

В этой теме нет новых непрочитанных сообщений. Игра в Шиндай (2007) DVDRip от ExKinoRay

2 | 5

1.46 ГБ




Вы не можете начинать темы
Вы не можете отвечать на сообщения
Вы не можете редактировать свои сообщения
Вы не можете удалять свои сообщения
Вы не можете добавлять вложения

Перейти:  
Для Мосгорсуда, Роскомнадзора и рекламодателей: mosgorsud-torrent[собачка]yandex.ru
 Вход
ppkBB3cker v.2 © 2008-2014 @ PPK
[ Time : 0.036s | 14 Queries | GZIP : Off ]

Торрент трекер RUTOR.IN, Не можете зайти на rutor.org? Какой новый адрес рутор? Какое зеркало рутор? Не работает rutor.org и зеркала? Тогда наш торрент специально для вас. Rutor.in неофициальное зеркало rutor. В случае если у Вас заблокирован rutor или вдруг Вы не можете на него зайти, то Вы без труда сможете скачать бесплатно и без рекламы последние новинки кино, игр, сериалов и прочего у нас, на Rutor.in. Не нужно использовать прокси, чтобы зайти на рутор, достаточно воспользоваться нашим ресурсом. Все новые фильмы, игры, сериалы, книги и музыка за 2013 и 2014 годы через торрент бесплатно. Скачивайте фильмы в хорошем качестве, игры для пк, xbox, playstation без регистрации. У нас вы найдете новые Зарубежные сериалы и Русские сериалы 2013, 2014, 2015 годов. Оставайтесь с нами, качайте любимые фильмы, игры, сериалы, книги и музыку.