img image001 image001 image001 image001 image001 image001 image001 image001 image001 image001 image001 image001 image001 image001 image001

Planets Sun Sun Sun
Статистика раздачи
Автор: Nickolas3434 | Размер: 1.24 ГБ | Добавлен: 26 ноя 2015
Раздают: 199    Качают: 38
Скачать торрент
Скачать торрент
Описание торрента

СообщениеДобавлено: 26 ноя 2015 


Информация о фильме
Название: Трын-трава
Год выхода: 1976
Жанр: Комедия
Режиссер: Сергей Никоненко
В ролях: Лидия Федосеева-Шукшина, Сергей Никоненко, Николай Бурляев, Мария Виноградова, Алексей Ванин, Евгений Шутов, Светлана Харитонова, Лариса Удовиченко, Александр Пятков, Игорь Безяев, Виктор Уральский, Зураб Кипшидзе
О фильме: Жил-был в колхозе механизатор Степан Калашников со своей любимой женой Лидой. Но из-за душевной тонкости мечтательной супруги Степан неоднократно уходил из дома. А тут еще приехал в село на практику интеллигентный студент и начал Лидии рассказывать про городскую жизнь да стихи разные читать. И семейная жизнь пошла под откос...
Страна: СССР
Продолжительность: 01:27:50
Перевод: не требуется
Файл
Кодек: x264
Качество: DVDRip-AVC
Видео: MPEG-4 AVC, 1830 Кбит/с, 676x324@724x324
Звук: AC3, 2 ch, 192 Кбит/с

raw [info]: 676x324p 16:15 @ 25/1 fps (cfr)
x264 [info]: using SAR=16/15
x264 [info]: using cpu capabilities: MMX2 SSE2Fast SSSE3 SSE4.2 AVX
x264 [info]: profile High, level 4.1
x264 [info]: frame I:748 Avg QP:16.72 size: 49460
x264 [info]: frame P:49148 Avg QP:20.65 size: 16401
x264 [info]: frame B:81861 Avg QP:21.78 size: 4431
=========================================================================================================
Общее
Уникальный идентификатор : 205934541789904719356696358134422069276 (0x9AED8CD0D7B07645B19147C6811E601C)
Полное имя : D:Трын-трава_1976-DVDRip-AVC.mkv
Формат : Matroska
Версия формата : Version 2
Размер файла : 1,24 Гбайт
Продолжительность : 1 ч. 27 м.
Общий поток : 2024 Кбит/сек
Дата кодирования : UTC 2015-11-24 18:20:10
Программа кодирования : mkvmerge v5.8.0 ('No Sleep / Pillow') built on Sep 2 2012 15:37:04
Библиотека кодирования : libebml v1.2.3 + libmatroska v1.3.0
Видео
Идентификатор : 1
Формат : AVC
Формат/Информация : Advanced Video Codec
Профиль формата : High@L4.1
Параметр CABAC формата : Да
Параметр ReFrames формата : 12 кадров
Идентификатор кодека : V_MPEG4/ISO/AVC
Продолжительность : 1 ч. 27 м.
Битрейт : 1830 Кбит/сек
Ширина : 676 пикселей
Высота : 324 пикселя
Соотношение сторон : 2,228
Соотношение сторон в оригинале : 2,226
Режим частоты кадров : Постоянный
Частота кадров : 25,000 кадров/сек
Цветовое пространство : YUV
Субдискретизация насыщенности : 4:2:0
Битовая глубина : 8 бит
Тип развёртки : Прогрессивная
Бит/(Пиксели*Кадры) : 0.334
Размер потока : 1,10 Гбайт (89%)
Библиотека кодирования : x264 core 148 r2579 73ae2d1
Настройки программы : cabac=1 / ref=12 / deblock=1:-2:-2 / analyse=0x3:0x133 / me=umh / subme=10 / psy=1 / psy_rd=1.05:0.15 / mixed_ref=1 / me_range=32 / chroma_me=1 / trellis=2 / 8x8dct=1 / cqm=0 / deadzone=21,11 / fast_pskip=0 / chroma_qp_offset=-3 / threads=10 / lookahead_threads=1 / sliced_threads=0 / nr=0 / decimate=0 / interlaced=0 / bluray_compat=0 / constrained_intra=0 / bframes=7 / b_pyramid=2 / b_adapt=2 / b_bias=0 / direct=3 / weightb=1 / open_gop=0 / weightp=2 / keyint=250 / keyint_min=25 / scenecut=40 / intra_refresh=0 / rc=2pass / mbtree=0 / bitrate=1830 / ratetol=1.0 / qcomp=0.63 / qpmin=0 / qpmax=39 / qpstep=4 / cplxblur=20.0 / qblur=0.5 / ip_ratio=1.40 / pb_ratio=1.30 / aq=1:1.00
Язык : English
Default : Да
Forced : Нет
Цветовой диапазон : Limited
Основные цвета : BT.601 PAL
Характеристики трансфера : BT.470 System B, BT.470 System G
Коэффициенты матрицы : BT.601
Аудио
Идентификатор : 2
Формат : AC-3
Формат/Информация : Audio Coding 3
Расширение режима : CM (complete main)
Параметр Endianness формата : Big
Идентификатор кодека : A_AC3
Продолжительность : 1 ч. 27 м.
Вид битрейта : Постоянный
Битрейт : 192 Кбит/сек
Каналы : 2 канала
Расположение каналов : Front: L R
Частота : 48,0 КГц
Метод сжатия : С потерями
Размер потока : 121 Мбайт (9%)
Язык : Russian
Default : Да
Forced : Нет

Релиз от:
Автор релиза:



   Похожие торренты   Торрент   Размер 
В этой теме нет новых непрочитанных сообщений. Трын-трава (1976) DVDRip от KINOREAKTOR

7 | 5

1.37 ГБ

В этой теме нет новых непрочитанных сообщений. Дни Турбиных (1976) DVDRip-AVC от ExKinoRay

423 | 29

3.78 ГБ

В этой теме нет новых непрочитанных сообщений. Трава под снегом [01-04 из 04] (2010) DVDRip

35 | 4

2.14 ГБ

В этой теме нет новых непрочитанных сообщений. Аты-баты, шли солдаты (1976) DVDRip-AVC от ExKinoRay

515 | 14

1.7 ГБ

В этой теме нет новых непрочитанных сообщений. Игрушка / Le jouet (1976) DVDRip от ExKinoRay

158 | 9

1.46 ГБ

В этой теме нет новых непрочитанных сообщений. Красавец-мужчина (1976) DVDRip-AVC от ExKinoRay

55 | 8

2.67 ГБ

В этой теме нет новых непрочитанных сообщений. Труффальдино из Бергамо (1976) DVDRip-AVC от ExKinoRay

694 | 30

3.71 ГБ




Вы не можете начинать темы
Вы не можете отвечать на сообщения
Вы не можете редактировать свои сообщения
Вы не можете удалять свои сообщения
Вы не можете добавлять вложения

Перейти:  
Для Мосгорсуда, Роскомнадзора и рекламодателей: mosgorsud-torrent[собачка]yandex.ru
 Вход
ppkBB3cker v.2 © 2008-2014 @ PPK
[ Time : 0.035s | 14 Queries | GZIP : On ]

Торрент трекер RUTOR.IN, Не можете зайти на rutor.org? Какой новый адрес рутор? Какое зеркало рутор? Не работает rutor.org и зеркала? Тогда наш торрент специально для вас. Rutor.in неофициальное зеркало rutor. В случае если у Вас заблокирован rutor или вдруг Вы не можете на него зайти, то Вы без труда сможете скачать бесплатно и без рекламы последние новинки кино, игр, сериалов и прочего у нас, на Rutor.in. Не нужно использовать прокси, чтобы зайти на рутор, достаточно воспользоваться нашим ресурсом. Все новые фильмы, игры, сериалы, книги и музыка за 2013 и 2014 годы через торрент бесплатно. Скачивайте фильмы в хорошем качестве, игры для пк, xbox, playstation без регистрации. У нас вы найдете новые Зарубежные сериалы и Русские сериалы 2013, 2014, 2015 годов. Оставайтесь с нами, качайте любимые фильмы, игры, сериалы, книги и музыку.