img image001 image001 image001 image001 image001 image001 image001 image001 image001 image001 image001 image001 image001 image001 image001

Planets Sun Sun Sun
Статистика раздачи
Автор: Nickolas3434 | Размер: 1.46 ГБ | Добавлен: 26 ноя 2015
Раздают: 15    Качают: 15
Скачать торрент
Скачать торрент
Описание торрента

СообщениеДобавлено: 26 ноя 2015 

Страна: СССР
Производство: Мосфильм
Жанр: драма, биография
Год выпуска: 1951
Продолжительность: 01:47:34
Перевод: Не требуется
Cубтитры: нет
Оригинальная аудиодорожка: русский
Режиссер: Сергей Юткевич
В ролях:
Сергей Папов, Всеволод Ларионов, Борис Тенин, Цырен (Цыренжап) Шагжин, Георгий Слабиняк, Николай Комиссаров, Владимир Всеволодов, Николай Свободин, Сергей Мартинсон, Василий Бокарев, Владимир Таскин, Сергей Ценин, Кэн Джен, Тэн Лун, Лян Лен-Дзу, Ван Гуан-Дэ, Пак Чун-Сеп, Ким Дин, Цэдэн Дамдинов, Дагба Дондуков, Петр Николаев...
Полный список актёров
Описание:
Фильм посвящен знаменитому русскому путешественнику Николаю Михайловичу Пржевальскому, руководившему экспедицией в Уссурийский край и четырьмя научными экспедициями в Центральную Азию (1870-1885 гг.).
Пржевальский впервые описал природу Центральной Азии, открыл много хребтов, озер и рек; собрал ценные коллекции растений и животных, впервые описал дикого верблюда, дикую лошадь и тибетского медведя.
Он был похоронен на берегу озера Иссык-Куль (близ нынешнего г. Пржевальска).Там же находится его музей. Память Пржевальского увековечена также путем присвоения его имени открытой им дикой лошади.





Источник: DVD5 R5
Качество видео: DVDRip
Формат видео: AVI
Видео: 688x512 (4:3), 25 fps, XviD ~ 1741 kbps avg, 0.198 bit/pixel
Аудио: 48 kHz, Dolby Digital AC3 2.0, 192 kbps
Раздача от:
Общее
Полное имя : Przhevalskiy.1951.DVDRip_[New-team]_by_AVP_Studio.avi
Формат : AVI
Формат/Информация : Audio Video Interleave
Размер файла : 1,46 Гбайт
Продолжительность : 1 ч. 47 м.
Общий поток : 1943 Кбит/сек
Программа кодирования : VirtualDubMod 1.5.10.3 | www.virtualdub-fr.org || (build 2550/release)
Библиотека кодирования : VirtualDubMod build 2550/release
Видео
Идентификатор : 0
Формат : MPEG-4 Visual
Профиль формата : Advanced Simple@L5
Параметр BVOP формата : 1
Параметр QPel формата : Нет
Параметр GMC формата : Без точки перехода
Параметр матрицы формата : Выборочная
Идентификатор кодека : XVID
Идентификатор кодека/Подсказка : XviD
Продолжительность : 1 ч. 47 м.
Битрейт : 1741 Кбит/сек
Ширина : 688 пикселей
Высота : 512 пикселей
Соотношение сторон : 4:3
Частота кадров : 25,000 кадров/сек
Цветовое пространство : YUV
Субдискретизация насыщенности : 4:2:0
Битовая глубина : 8 бит
Тип развёртки : Прогрессивная
Метод сжатия : С потерями
Бит/(Пиксели*Кадры) : 0.198
Размер потока : 1,31 Гбайт (90%)
Библиотека кодирования : XviD 73
Аудио
Идентификатор : 1
Формат : AC-3
Формат/Информация : Audio Coding 3
Расширение режима : CM (complete main)
Параметр Endianness формата : Big
Идентификатор кодека : 2000
Продолжительность : 1 ч. 47 м.
Вид битрейта : Постоянный
Битрейт : 192 Кбит/сек
Каналы : 2 канала
Расположение каналов : Front: L R
Частота : 48,0 КГц
Метод сжатия : С потерями
Размер потока : 148 Мбайт (10%)
Выравнивание : Разделение по промежуткам
Продолжительность промежутка : 40 мс. (1,00 видеокадр)
Время предзагрузки промежутка : 500 мс





   Похожие торренты   Торрент   Размер 
В этой теме нет новых непрочитанных сообщений. Пржевальский (1951) DVDRip от New-Team

31 | 7

745.87 МБ

В этой теме нет новых непрочитанных сообщений. Пржевальский (1951) DVDRip-AVC от New-Team

68 | 27

1.46 ГБ

В этой теме нет новых непрочитанных сообщений. Пржевальский (1951) DVDRip от Files-x

23 | 9

1.52 ГБ

В этой теме нет новых непрочитанных сообщений. Белинский (1951) DVDRip от New-Team

48 | 6

1.46 ГБ

В этой теме нет новых непрочитанных сообщений. Белинский (1951) DVDRip-AVC от New-Team

39 | 20

1.46 ГБ

В этой теме нет новых непрочитанных сообщений. Белинский (1951) DVDRip от New-Team

5 | 19

745.32 МБ

В этой теме нет новых непрочитанных сообщений. Большой концерт (1951) DVDRip от New-Team

15 | 12

744.54 МБ




Вы не можете начинать темы
Вы не можете отвечать на сообщения
Вы не можете редактировать свои сообщения
Вы не можете удалять свои сообщения
Вы не можете добавлять вложения

Перейти:  
Для Мосгорсуда, Роскомнадзора и рекламодателей: mosgorsud-torrent[собачка]yandex.ru
 Вход
ppkBB3cker v.2 © 2008-2014 @ PPK
[ Time : 0.511s | 15 Queries | GZIP : Off ]

Торрент трекер RUTOR.IN, Не можете зайти на rutor.org? Какой новый адрес рутор? Какое зеркало рутор? Не работает rutor.org и зеркала? Тогда наш торрент специально для вас. Rutor.in неофициальное зеркало rutor. В случае если у Вас заблокирован rutor или вдруг Вы не можете на него зайти, то Вы без труда сможете скачать бесплатно и без рекламы последние новинки кино, игр, сериалов и прочего у нас, на Rutor.in. Не нужно использовать прокси, чтобы зайти на рутор, достаточно воспользоваться нашим ресурсом. Все новые фильмы, игры, сериалы, книги и музыка за 2013 и 2014 годы через торрент бесплатно. Скачивайте фильмы в хорошем качестве, игры для пк, xbox, playstation без регистрации. У нас вы найдете новые Зарубежные сериалы и Русские сериалы 2013, 2014, 2015 годов. Оставайтесь с нами, качайте любимые фильмы, игры, сериалы, книги и музыку.