img image001 image001 image001 image001 image001 image001 image001 image001 image001 image001 image001 image001 image001 image001 image001

Planets Sun Sun Sun
Статистика раздачи
Автор: Nickolas3434 | Размер: 6.92 ГБ | Добавлен: 27 ноя 2015
Раздают: 61    Качают: 25
Скачать торрент
Скачать торрент
Описание торрента

СообщениеДобавлено: 27 ноя 2015 


Информация о фильме
Название: Вариант «Омега»
Год выхода: 1975
Жанр: Военный, экранизация
Режиссер: Антонис-Янис Воязос
В ролях: Олег Даль, Игорь Васильев, Елена Прудникова, Ирина Печерникова, Евгений Евстигнеев, Вадим Яковлев, Сергей Полежаев, Пауль Кальде, Александр Калягин, Алексей Эйбоженко, Фёдор Никитин, Виталий Коняев, Людмила Иванова, Рейно Арен, Эйнари Коппель, Игорь Кан, Александр Липов, Валерий Лысенков, Дмитрий Орловский
О фильме: В основе фильма - документальный материал о действиях советской разведки в оккупированном гитлеровцами Таллинне. Весна 1942 года. В городе появляется немецкий разведчик фон Шлоссер. Его задание - продвижение стратегической дезинформации в советскую Ставку. Шлоссер рассчитывает сделать пешкой в своей игре советского разведчика Скорина, который приезжает в Таллинн под видом немецкого офицера Пауля Кригера. Чтобы ускорить выполнение задания советского командования, Скорин-Кригер идет на вариант "Омега" - провоцирует свой арест.
Страна: СССР, ТО Экран
Продолжительность: 5 x ~ 01:10:43
Перевод: не требуется
Файл
Кодек: x264
Качество: DVDRip-AVC
Видео: MPEG-4 AVC, 2200 Кбит/с, 720x576@768x576
Звук: AC3, 6 ch, 448 Кбит/с, AC3, 1 ch, 128 Кбит/с

raw [info]: 720x576p 16:15 @ 25/1 fps (cfr)
x264 [info]: using SAR=16/15
x264 [info]: using cpu capabilities: MMX2 SSE2Fast SSSE3 SSE4.2 AVX
x264 [info]: profile High, level 4.1
x264 [info]: frame I:512 Avg QP:16.59 size: 68253
x264 [info]: frame P:21570 Avg QP:20.15 size: 25929
x264 [info]: frame B:81217 Avg QP:21.73 size: 6696
===============================================================================================================
Общее
Уникальный идентификатор : 250935032362685374303515034173036555277 (0xBCC8544C802BE94F9E9C24F63D23EC0D)
Полное имя : R:МОИ РИПЫВариант Омега_1975-DVDRip-AVCОмега-1.mkv
Формат : Matroska
Версия формата : Version 2
Размер файла : 1,38 Гбайт
Продолжительность : 1 ч. 11 м.
Общий поток : 2778 Кбит/сек
Дата кодирования : UTC 2015-08-29 09:37:26
Программа кодирования : mkvmerge v5.8.0 ('No Sleep / Pillow') built on Sep 2 2012 15:37:04
Библиотека кодирования : libebml v1.2.3 + libmatroska v1.3.0
Видео
Идентификатор : 1
Формат : AVC
Формат/Информация : Advanced Video Codec
Профиль формата : High@L4.1
Параметр CABAC формата : Да
Параметр ReFrames формата : 15 кадров
Идентификатор кодека : V_MPEG4/ISO/AVC
Продолжительность : 1 ч. 11 м.
Битрейт : 2200 Кбит/сек
Ширина : 720 пикселей
Высота : 576 пикселей
Соотношение сторон : 4:3
Режим частоты кадров : Постоянный
Частота кадров : 25,000 кадров/сек
Стандарт вещания : PAL
Цветовое пространство : YUV
Субдискретизация насыщенности : 4:2:0
Битовая глубина : 8 бит
Тип развёртки : Прогрессивная
Бит/(Пиксели*Кадры) : 0.212
Размер потока : 1,07 Гбайт (77%)
Библиотека кодирования : x264 core 146 r2538 121396c
Настройки программы : cabac=1 / ref=15 / deblock=1:-2:-2 / analyse=0x3:0x133 / me=umh / subme=10 / psy=1 / psy_rd=1.05:0.05 / mixed_ref=1 / me_range=32 / chroma_me=1 / trellis=2 / 8x8dct=1 / cqm=0 / deadzone=21,11 / fast_pskip=0 / chroma_qp_offset=-3 / threads=12 / lookahead_threads=2 / sliced_threads=0 / nr=0 / decimate=0 / interlaced=0 / bluray_compat=0 / constrained_intra=0 / bframes=9 / b_pyramid=2 / b_adapt=2 / b_bias=0 / direct=3 / weightb=1 / open_gop=0 / weightp=2 / keyint=250 / keyint_min=25 / scenecut=40 / intra_refresh=0 / rc=2pass / mbtree=0 / bitrate=2200 / ratetol=1.0 / qcomp=0.65 / qpmin=0 / qpmax=45 / qpstep=4 / cplxblur=20.0 / qblur=0.5 / ip_ratio=1.40 / pb_ratio=1.30 / aq=1:1.00
Язык : English
Default : Да
Forced : Нет
Основные цвета : BT.601 PAL
Характеристики трансфера : BT.470 System B, BT.470 System G
Коэффициенты матрицы : BT.601
Аудио #1
Идентификатор : 2
Формат : AC-3
Формат/Информация : Audio Coding 3
Расширение режима : CM (complete main)
Параметр Endianness формата : Big
Идентификатор кодека : A_AC3
Продолжительность : 1 ч. 11 м.
Вид битрейта : Постоянный
Битрейт : 448 Кбит/сек
Каналы : 6 каналов
Расположение каналов : Front: L C R, Side: L R, LFE
Частота : 48,0 КГц
Битовая глубина : 16 бит
Метод сжатия : С потерями
Размер потока : 228 Мбайт (16%)
Язык : Russian
Default : Да
Forced : Нет
Аудио #2
Идентификатор : 3
Формат : AC-3
Формат/Информация : Audio Coding 3
Расширение режима : CM (complete main)
Параметр Endianness формата : Big
Идентификатор кодека : A_AC3
Продолжительность : 1 ч. 11 м.
Вид битрейта : Постоянный
Битрейт : 128 Кбит/сек
Каналы : 1 канал
Расположение каналов : Front: C
Частота : 48,0 КГц
Битовая глубина : 16 бит
Метод сжатия : С потерями
Размер потока : 65,2 Мбайт (5%)
Язык : Russian
Default : Нет
Forced : Нет

Релиз от:
Автор релиза:



   Похожие торренты   Торрент   Размер 
В этой теме нет новых непрочитанных сообщений. Вариант «Омега» (1975) DVDRip от New-Team

12 | 3

6.56 ГБ

В этой теме нет новых непрочитанных сообщений. Вариант «Омега» (1975) DVDRip-AVC от New-Team

4 | 3

6.55 ГБ

В этой теме нет новых непрочитанных сообщений. Вариант "Омега" сериал (1975) DVDRip | полная реставрация

56 | 7

3.42 ГБ

В этой теме нет новых непрочитанных сообщений. S.T.A.L.K.E.R.: Shadow of Chernobyl - Вариант Омега (2014) PC | Mod

49 | 19

2.7 ГБ

В этой теме нет новых непрочитанных сообщений. S.T.A.L.K.E.R.: Shadow of Chernobyl - Вариант Омега (2014) PC | Mod

5 | 7

2.91 ГБ

В этой теме нет новых непрочитанных сообщений. S.T.A.L.K.E.R.: Shadow of Chernobyl - Вариант Омега [Часть 1-я] (2012) PC | Mod

0 | 2

2.04 ГБ

В этой теме нет новых непрочитанных сообщений. S.T.A.L.K.E.R.: Shadow of Chernobyl - Вариант Омега (2014) PC | RePack от SeregA-Lus

37 | 12

5.45 ГБ




Вы не можете начинать темы
Вы не можете отвечать на сообщения
Вы не можете редактировать свои сообщения
Вы не можете удалять свои сообщения
Вы не можете добавлять вложения

Перейти:  
Для Мосгорсуда, Роскомнадзора и рекламодателей: mosgorsud-torrent[собачка]yandex.ru
 Вход
ppkBB3cker v.2 © 2008-2014 @ PPK
[ Time : 0.077s | 16 Queries | GZIP : Off ]
CGP output time : 0.035s | 5 Queries | GZIP : Off

Торрент трекер RUTOR.IN, Не можете зайти на rutor.org? Какой новый адрес рутор? Какое зеркало рутор? Не работает rutor.org и зеркала? Тогда наш торрент специально для вас. Rutor.in неофициальное зеркало rutor. В случае если у Вас заблокирован rutor или вдруг Вы не можете на него зайти, то Вы без труда сможете скачать бесплатно и без рекламы последние новинки кино, игр, сериалов и прочего у нас, на Rutor.in. Не нужно использовать прокси, чтобы зайти на рутор, достаточно воспользоваться нашим ресурсом. Все новые фильмы, игры, сериалы, книги и музыка за 2013 и 2014 годы через торрент бесплатно. Скачивайте фильмы в хорошем качестве, игры для пк, xbox, playstation без регистрации. У нас вы найдете новые Зарубежные сериалы и Русские сериалы 2013, 2014, 2015 годов. Оставайтесь с нами, качайте любимые фильмы, игры, сериалы, книги и музыку.