img image001 image001 image001 image001 image001 image001 image001 image001 image001 image001 image001 image001 image001 image001 image001

Planets Sun Sun Sun
Статистика раздачи
Автор: Nickolas3434 | Размер: 1.42 ГБ | Добавлен: 28 ноя 2015
Раздают: 7155    Качают: 281
Скачать торрент
Скачать торрент
Описание торрента

СообщениеДобавлено: 28 ноя 2015 


Информация о фильме
Название: Без границ
Год выпуска: 2015
Страна: Россия
Жанр: комедия, мелодрама

Перевод: Оригинал iTunes
Продолжительность: 01:36:02

Режиссер: Карен Оганесян , Резо Гигинеишвили , Роман Прыгунов
В ролях: Инна Чурикова, Олег Басилашвили, Александр Адабашьян, Анна Чиповская, Иван Янковский, Александр Паль, Милош Бикович, Мария Шалаева, Равшана Куркова, Наталия Вдовина, Елена Ходжаева (девушка), Саёра Сафари


Описание:
События картины начинаются в московском аэропорту, откуда главные герои отправляются в захватывающие путешествия к живописным горным долинам Армении, утопающим в зелени улочкам Тбилиси и праздничным огням новогодней Москвы навстречу любви - яркой и страстной, наивной и нелепой, трогательной и грустной, счастливой и безрассудной, которая не знает границ и условностей, возраста и национальностей.

Рейтинг:


Качество: WEB-DLRip-AVC
Формат: MKV
Видео: AVC, 1024x428 (2.40:1), 1731 kbps, 24 fps, 0,165 bpp
Аудио: русский / AC3 / 5.1 / 48 kHz / 384 kbps / 16 bit ||
СЭМПЛ


Релиз от: by White Smoke / R.G. Resident


General
Unique ID : 227245162637161441773338168219759532820 (0xAAF5D38B47DF99699E9C238740ABDB14)
Complete name : C:6e3.Gp4Hyc.2015.WEB-DLRip-AVC.by.White Smoke.R.G.Resident.mkv
Format : Matroska
Format version : Version 4 / Version 2
File size : 1.42 GiB
Duration : 1h 36mn
Overall bit rate : 2 117 Kbps
Encoded date : UTC 2015-11-26 11:52:49
Writing application : mkvmerge v6.8.0 ('Theme for Great Cities') 64bit built on Mar 2 2014 21:34:26
Writing library : libebml v1.3.0 + libmatroska v1.4.1
Video
ID : 1
Format : AVC
Format/Info : Advanced Video Codec
Format profile : High@L4.1
Format settings, CABAC : Yes
Format settings, ReFrames : 12 frames
Codec ID : V_MPEG4/ISO/AVC
Duration : 1h 36mn
Bit rate : 1 731 Kbps
Width : 1 024 pixels
Height : 428 pixels
Display aspect ratio : 2.40:1
Frame rate : 24.000 fps
Color space : YUV
Chroma subsampling : 4:2:0
Bit depth : 8 bits
Scan type : Progressive
Bits/(Pixel*Frame) : 0.165
Stream size : 1.13 GiB (80%)
Writing library : x264 core 146 r2538 121396c
Encoding settings : cabac=1 / ref=12 / deblock=1:-3:-3 / analyse=0x3:0x113 / me=umh / subme=9 / psy=1 / psy_rd=1.00:0.00 / mixed_ref=1 / me_range=32 / chroma_me=1 / trellis=1 / 8x8dct=1 / cqm=0 / deadzone=21,11 / fast_pskip=1 / chroma_qp_offset=-2 / threads=6 / lookahead_threads=1 / sliced_threads=0 / nr=0 / decimate=1 / interlaced=0 / bluray_compat=0 / constrained_intra=0 / bframes=10 / b_pyramid=2 / b_adapt=2 / b_bias=10 / direct=1 / weightb=0 / open_gop=0 / weightp=2 / keyint=240 / keyint_min=24 / scenecut=40 / intra_refresh=0 / rc_lookahead=40 / rc=2pass / mbtree=1 / bitrate=1731 / ratetol=1.0 / qcomp=0.65 / qpmin=0 / qpmax=69 / qpstep=4 / cplxblur=20.0 / qblur=0.5 / ip_ratio=1.40 / aq=1:1.00
Language : English
Default : Yes
Forced : No
Audio
ID : 2
Format : AC-3
Format/Info : Audio Coding 3
Mode extension : CM (complete main)
Codec ID : A_AC3
Duration : 1h 36mn
Bit rate mode : Constant
Bit rate : 384 Kbps
Channel(s) : 6 channels
Channel positions : Front: L C R, Side: L R, LFE
Sampling rate : 48.0 KHz
Bit depth : 16 bits
Compression mode : Lossy
Stream size : 264 MiB (18%)
Language : Russian
Default : Yes
Forced : No




   Похожие торренты   Торрент   Размер 
В этой теме нет новых непрочитанных сообщений. Без границ (2015) WEB-DLRip | iTunes

696 | 41

698.92 МБ

В этой теме нет новых непрочитанных сообщений. Без границ (2015) WEB-DLRip | iTunes

10967 | 626

1.46 ГБ

В этой теме нет новых непрочитанных сообщений. Без границ (2015) WEB-DLRip от Scarabey | iTunes

2594 | 116

1.45 ГБ

В этой теме нет новых непрочитанных сообщений. Без границ (2015) WEB-DL 720p | iTunes

3538 | 192

2.93 ГБ

В этой теме нет новых непрочитанных сообщений. Без границ (2015) WEB-DL 1080p | iTunes

3801 | 131

3.23 ГБ

В этой теме нет новых непрочитанных сообщений. Comedy Баттл без границ [31] (2013) WEB-DLRip

8 | 2

633.14 МБ

В этой теме нет новых непрочитанных сообщений. Comedy Баттл без границ [25] (2013) WEB-DLRip

62 | 4

635.68 МБ




Вы не можете начинать темы
Вы не можете отвечать на сообщения
Вы не можете редактировать свои сообщения
Вы не можете удалять свои сообщения
Вы не можете добавлять вложения

Перейти:  
Для Мосгорсуда, Роскомнадзора и рекламодателей: mosgorsud-torrent[собачка]yandex.ru
 Вход
ppkBB3cker v.2 © 2008-2014 @ PPK
[ Time : 0.087s | 14 Queries | GZIP : Off ]

Торрент трекер RUTOR.IN, Не можете зайти на rutor.org? Какой новый адрес рутор? Какое зеркало рутор? Не работает rutor.org и зеркала? Тогда наш торрент специально для вас. Rutor.in неофициальное зеркало rutor. В случае если у Вас заблокирован rutor или вдруг Вы не можете на него зайти, то Вы без труда сможете скачать бесплатно и без рекламы последние новинки кино, игр, сериалов и прочего у нас, на Rutor.in. Не нужно использовать прокси, чтобы зайти на рутор, достаточно воспользоваться нашим ресурсом. Все новые фильмы, игры, сериалы, книги и музыка за 2013 и 2014 годы через торрент бесплатно. Скачивайте фильмы в хорошем качестве, игры для пк, xbox, playstation без регистрации. У нас вы найдете новые Зарубежные сериалы и Русские сериалы 2013, 2014, 2015 годов. Оставайтесь с нами, качайте любимые фильмы, игры, сериалы, книги и музыку.