img image001 image001 image001 image001 image001 image001 image001 image001 image001 image001 image001 image001 image001 image001 image001

Planets Sun Sun Sun
Статистика раздачи
Автор: Nickolas3434 | Размер: 745.54 МБ | Добавлен: 28 ноя 2015
Раздают: 163    Качают: 40
Скачать торрент
Скачать торрент
Описание торрента

СообщениеДобавлено: 28 ноя 2015 


Информация о фильме
Название: Только вперёд
Год выхода: 2008
Жанр: Боевик
Режиссер: Максим Бриус
В ролях: Максим Дрозд, Сергей Кошонин, Анна Слынько, Андрей Федорцов, Анастасия Мельникова, Анна Лутцева, Юрий Оськин, Вадим Яковлев, Андрей Астраханцев, Роман Жилкин
О фильме:
Ухов внедрен в банду, занимающуюся продажей военных разработок и технологий за границу. Банда имеет свою «Боевую дружину». У Ухова тщательно проработанная "легенда". Ухов вживается в образ, работает, информирует МВД о происходящем в банде, но его задача - выйти на лидера - Генриха. Один из бандитов (Кулаков) становится его другом. Однажды, во время бандитской операции, в которой Ухов принимает участие, Кулаков спасает его от смерти, и они становятся еще ближе. В Отделе МВД, которому поставляет информацию Ухов, его никто не знает, кроме Генерала, начальника Отдела. Выясняется, что в Отделе тоже есть шпион, работающий на Генриха. Благодаря ему Генрих узнает о том, что в банде есть предатель. Кто он, Генриху нужно выяснить это самому.

Страна: Россия
Студия: Триикс Медиа
Продолжительность: 01:38:17
Перевод: Не требуется
Файл
Кодек: XviD
Качество: HDTVRip
Видео: 624x352 (1.77:1), 25 fps, XviD build 73 ~922 kbps avg, 0.17 bit/pixel
Звук: 48 kHz, MPEG Layer 3, 2 ch, ~128.00 kbps avg
Субтитры: Отсутствует
Семпл
General
Complete name : E:Изготовление риповTolko.vpered.2008.HDTVRip.shkiper.avi
Format : AVI
Format/Info : Audio Video Interleave
File size : 746 MiB
Duration : 1h 38mn
Overall bit rate : 1 061 Kbps
Writing application : VirtualDubMod 1.5.10.3 | www.virtualdub-fr.org || (build 2550/release)
Writing library : VirtualDubMod build 2550/release
Video
ID : 0
Format : MPEG-4 Visual
Format profile : Advanced Simple@L5
Format settings, BVOP : 1
Format settings, QPel : No
Format settings, GMC : No warppoints
Format settings, Matrix : Custom
Codec ID : XVID
Codec ID/Hint : XviD
Duration : 1h 38mn
Bit rate : 923 Kbps
Width : 624 pixels
Height : 352 pixels
Display aspect ratio : 16:9
Frame rate : 25.000 fps
Color space : YUV
Chroma subsampling : 4:2:0
Bit depth : 8 bits
Scan type : Progressive
Compression mode : Lossy
Bits/(Pixel*Frame) : 0.168
Stream size : 649 MiB (87%)
Writing library : XviD 73
Audio
ID : 1
Format : MPEG Audio
Format version : Version 1
Format profile : Layer 3
Mode : Joint stereo
Mode extension : MS Stereo
Codec ID : 55
Codec ID/Hint : MP3
Duration : 1h 38mn
Bit rate mode : Constant
Bit rate : 128 Kbps
Channel(s) : 2 channels
Sampling rate : 48.0 KHz
Compression mode : Lossy
Stream size : 90.0 MiB (12%)
Alignment : Aligned on interleaves
Interleave, duration : 40 ms (1.00 video frame)
Interleave, preload duratio : 504 ms
Writing library : LAME3.99r
Encoding settings : -m j -V 4 -q 2 -lowpass 17 -b 128

Релиз от:



   Похожие торренты   Торрент   Размер 
В этой теме нет новых непрочитанных сообщений. Только вперёд (2008) HDTVRip 720p от MediaClub

106 | 5

2.43 ГБ

В этой теме нет новых непрочитанных сообщений. Вперед, Диего! Вперед! / Go, Diego! Go! [S01-07] (2005-2011) DVDRip от New-Team | лицензия

1394 | 253

16.72 ГБ

В этой теме нет новых непрочитанных сообщений. Саундтрек Шаг вперёд 2 (2008) MP3

10 | 4

483.7 МБ

В этой теме нет новых непрочитанных сообщений. Только вперед (2008) DVDRip

8 | 5

700.02 МБ

В этой теме нет новых непрочитанных сообщений. Шаг вперед 2: Улицы / Step Up 2: The Streets (2008) Blu-Ray

2 | 4

43.73 ГБ

В этой теме нет новых непрочитанных сообщений. Только вперед (2008) DVDRip от Киномагия

2 | 3

1.37 ГБ

В этой теме нет новых непрочитанных сообщений. Пленный (2008) HDRip от Шкипер

532 | 156

747.59 МБ




Вы не можете начинать темы
Вы не можете отвечать на сообщения
Вы не можете редактировать свои сообщения
Вы не можете удалять свои сообщения
Вы не можете добавлять вложения

Перейти:  
Для Мосгорсуда, Роскомнадзора и рекламодателей: mosgorsud-torrent[собачка]yandex.ru
 Вход
ppkBB3cker v.2 © 2008-2014 @ PPK
[ Time : 0.038s | 14 Queries | GZIP : Off ]

Торрент трекер RUTOR.IN, Не можете зайти на rutor.org? Какой новый адрес рутор? Какое зеркало рутор? Не работает rutor.org и зеркала? Тогда наш торрент специально для вас. Rutor.in неофициальное зеркало rutor. В случае если у Вас заблокирован rutor или вдруг Вы не можете на него зайти, то Вы без труда сможете скачать бесплатно и без рекламы последние новинки кино, игр, сериалов и прочего у нас, на Rutor.in. Не нужно использовать прокси, чтобы зайти на рутор, достаточно воспользоваться нашим ресурсом. Все новые фильмы, игры, сериалы, книги и музыка за 2013 и 2014 годы через торрент бесплатно. Скачивайте фильмы в хорошем качестве, игры для пк, xbox, playstation без регистрации. У нас вы найдете новые Зарубежные сериалы и Русские сериалы 2013, 2014, 2015 годов. Оставайтесь с нами, качайте любимые фильмы, игры, сериалы, книги и музыку.