img image001 image001 image001 image001 image001 image001 image001 image001 image001 image001 image001 image001 image001 image001 image001

Planets Sun Sun Sun
Статистика раздачи
Автор: Nickolas3434 | Размер: 5.29 ГБ | Добавлен: 29 ноя 2015
Раздают: 75    Качают: 31
Скачать торрент
Скачать торрент
Описание торрента

СообщениеДобавлено: 29 ноя 2015 


Информация о фильме
Название: Богач, бедняк...
Год выхода: 1982
Жанр: Драма
Режиссер: Арунас Жебрюнас
В ролях: Рута Сталилюнайте, Любомирас Лауцявичюс, Неле Савиченко-Климене, Саулюс Баландис, Ремигиюс Сабулис, Игорь Рогачёв, Георгий Тараторкин, Регимантас Адомайтис, Ромуальдас Раманаускас, Мирдза Мартинсоне, Юозас Будрайтис, Гедиминас Гирдвайнис, Юрате Онайтите, Арнис Лицитис, Витаутас Румшас, Йонас Алекса, Вайва Вида Майнелите, Линас Паугис, Эгле Тулявичюте, Витаутас Томкус, Андрейс Жагарс, Дзидра Ритенберга, Херманис Ваздикс, Альгирдас Паулавичюс, Мартинас Будрайтис, Юрис Стренга
О фильме:
Фильм по роману Ирвина Шоу о жизни клана Джордаш на фоне событий XX века. Трагическая, почти детективная история одной семьи немецкого эмигранта в Америке с 1945 года и до наших дней. Роман принадлежит к числу самых известных и популярных произведений американской литературы ХХ века. История семьи Джордахов, представленной в нескольких поколениях, разрастается до панорамы всего американского общества. Писатель прослеживает возможности, открывающиеся перед 'типичными' американцами, людьми без корней, стремящимися пробиться, достичь успеха и богатства. Новый взгляд на стереотипы, увлекательный сюжет, блестящий стиль – все это делает роман Ирвина Шоу захватывающим.
Страна: СССР, Литовская киностудия
Продолжительность: 4 x ~ 01:15:15
Перевод: не требуется
Файл
Кодек: x264
Качество: SATRip-AVC
Видео: MPEG-4, ~ 2300 Кбит/с, 712x566@760x566, 712x564@760x564, 704х564@750x564
Звук: AC3, 2 ch, 192 Кбит/с

Общее
Уникальный идентификатор : 212345260559731746831653771270544776510 (0x9FC035A76EC32CB3B8F8587528095D3E)
Полное имя : R:МОИ РИПЫБогач, бедняк_1982-SATRip-AVCБогач, бедняк-1.mkv
Формат : Matroska
Версия формата : Version 2
Размер файла : 1,30 Гбайт
Продолжительность : 1 ч. 14 м.
Общий поток : 2494 Кбит/сек
Дата кодирования : UTC 2014-08-04 03:25:53
Программа кодирования : mkvmerge v5.2.0 ('I can't explain') built on Dec 18 2011 18:12:03
Библиотека кодирования : libebml v1.2.3 + libmatroska v1.3.0
Видео
Идентификатор : 1
Формат : AVC
Формат/Информация : Advanced Video Codec
Профиль формата : High@L4.1
Параметр CABAC формата : Да
Параметр ReFrames формата : 15 кадров
Идентификатор кодека : V_MPEG4/ISO/AVC
Продолжительность : 1 ч. 14 м.
Битрейт : 2300 Кбит/сек
Ширина : 712 пикселей
Высота : 566 пикселей
Соотношение сторон : 4:3
Соотношение сторон в оригинале : 4:3
Режим частоты кадров : Постоянный
Частота кадров : 25,000 кадров/сек
Цветовое пространство : YUV
Субдискретизация насыщенности : 4:2:0
Битовая глубина : 8 бит
Тип развёртки : Прогрессивная
Бит/(Пиксели*Кадры) : 0.228
Размер потока : 1,18 Гбайт (90%)
Библиотека кодирования : x264 core 142 r2431 ac76440
Настройки программы : cabac=1 / ref=15 / deblock=1:-2:-2 / analyse=0x3:0x133 / me=umh / subme=10 / psy=1 / psy_rd=1.05:0.15 / mixed_ref=1 / me_range=24 / chroma_me=1 / trellis=2 / 8x8dct=1 / cqm=0 / deadzone=21,11 / fast_pskip=0 / chroma_qp_offset=-3 / threads=12 / lookahead_threads=3 / sliced_threads=0 / nr=0 / decimate=0 / interlaced=0 / bluray_compat=0 / constrained_intra=0 / bframes=10 / b_pyramid=2 / b_adapt=2 / b_bias=0 / direct=3 / weightb=1 / open_gop=0 / weightp=2 / keyint=250 / keyint_min=25 / scenecut=40 / intra_refresh=0 / rc=2pass / mbtree=0 / bitrate=2300 / ratetol=1.0 / qcomp=0.65 / qpmin=0 / qpmax=39 / qpstep=4 / cplxblur=20.0 / qblur=0.5 / ip_ratio=1.40 / pb_ratio=1.30 / aq=1:0.90
Язык : English
Default : Да
Forced : Нет
Цветовой диапазон : Limited
Основные цвета : BT.601 PAL
Характеристики трансфера : BT.470 System B, BT.470 System G
Коэффициенты матрицы : BT.601
Аудио
Идентификатор : 2
Формат : AC-3
Формат/Информация : Audio Coding 3
Расширение режима : CM (complete main)
Параметр Endianness формата : Big
Идентификатор кодека : A_AC3
Продолжительность : 1 ч. 14 м.
Вид битрейта : Постоянный
Битрейт : 192 Кбит/сек
Каналы : 2 канала
Расположение каналов : Front: L R
Частота : 48,0 КГц
Метод сжатия : С потерями
Задержка видео : 150 мс.
Размер потока : 103 Мбайт (8%)
Язык : Russian
Default : Да
Forced : Нет

Релиз от:
Автор релиза:



   Похожие торренты   Торрент   Размер 
В этой теме нет новых непрочитанных сообщений. Богач, бедняк [4 серии из 4] (1982) IPTVRip

244 | 13

4.4 ГБ

В этой теме нет новых непрочитанных сообщений. Богач / Le ruffian (1982) DVDRip от Киномагия

7 | 2

1.37 ГБ

В этой теме нет новых непрочитанных сообщений. Магистраль (1982) SATRip-AVC от ExKinoRay

138 | 17

1.86 ГБ

В этой теме нет новых непрочитанных сообщений. Транзит (1982) SATRip-AVC от ExKinoRay

44 | 2

1.92 ГБ

В этой теме нет новых непрочитанных сообщений. Жадный богач (1980) DVDRip

55 | 6

80.49 МБ

В этой теме нет новых непрочитанных сообщений. Инспектор ГАИ (1982) DVDRip-AVC от ExKinoRay

200 | 44

1.7 ГБ

В этой теме нет новых непрочитанных сообщений. Чародеи (1982) DVDRip-AVC от ExKinoRay

1258 | 57

3.26 ГБ




Вы не можете начинать темы
Вы не можете отвечать на сообщения
Вы не можете редактировать свои сообщения
Вы не можете удалять свои сообщения
Вы не можете добавлять вложения

Перейти:  
Для Мосгорсуда, Роскомнадзора и рекламодателей: mosgorsud-torrent[собачка]yandex.ru
 Вход
ppkBB3cker v.2 © 2008-2014 @ PPK
[ Time : 1.979s | 14 Queries | GZIP : Off ]

Торрент трекер RUTOR.IN, Не можете зайти на rutor.org? Какой новый адрес рутор? Какое зеркало рутор? Не работает rutor.org и зеркала? Тогда наш торрент специально для вас. Rutor.in неофициальное зеркало rutor. В случае если у Вас заблокирован rutor или вдруг Вы не можете на него зайти, то Вы без труда сможете скачать бесплатно и без рекламы последние новинки кино, игр, сериалов и прочего у нас, на Rutor.in. Не нужно использовать прокси, чтобы зайти на рутор, достаточно воспользоваться нашим ресурсом. Все новые фильмы, игры, сериалы, книги и музыка за 2013 и 2014 годы через торрент бесплатно. Скачивайте фильмы в хорошем качестве, игры для пк, xbox, playstation без регистрации. У нас вы найдете новые Зарубежные сериалы и Русские сериалы 2013, 2014, 2015 годов. Оставайтесь с нами, качайте любимые фильмы, игры, сериалы, книги и музыку.