img image001 image001 image001 image001 image001 image001 image001 image001 image001 image001 image001 image001 image001 image001 image001

Planets Sun Sun Sun
Статистика раздачи
Автор: Nickolas3434 | Размер: 5.72 ГБ | Добавлен: 29 ноя 2015
Раздают: 73    Качают: 38
Скачать торрент
Скачать торрент
Описание торрента

СообщениеДобавлено: 29 ноя 2015 


Информация о фильме
Название: Американская трагедия
Год выхода: 1981
Жанр: Драма
Режиссер: Марионас Гедрис
В ролях: Гедиминас Сторпирштис, Анна Алексахина, Аида Зара (Зарс), Регимантас Адомайтис, Альгирдас Шемешкявичюс, Римантас Сипарис, Рута Сталилюнайте, Арунас Сторпирштис, Эдгар Лиепинь, Хенрикас Кураускас, Эугения Плешките, Антра Лиедскалныня, Альгимантас Масюлис, Нийоле Ожелите, Ремигиюс Сабулис
О фильме:
По мотивам одноименного романа Теодора Драйзера. Юноша Клайд Гриффитс был честолюбив, но беден. Одержимый стремлением сделать карьеру и попасть в высшее общество, он делает все, чтобы приблизиться к заветной цели. Ради достижения успеха он не остановится даже перед страшным преступлением.
Страна: СССР, Литовская киностудия
Продолжительность: 4 х ~ 01:10:10
Перевод: не требуется
Файл
Кодек: x264
Качество: SATRip-AVC
Видео: MPEG-4 AVC, ~ 2750 Кбит/с, 712x572@768х572
Звук: AC3, 2 ch, 192 Кбит/с




Общее
Уникальный идентификатор : 181550389886856149433692988510852183543 (0x8895554E8CCAABA1ABBCC786420975F7)
Полное имя : D:CINEMAАмериканская трагедия_1981-SATRip-AVCАмериканская трагедия-1.mkv
Формат : Matroska
Версия формата : Version 2
Размер файла : 1,34 Гбайт
Продолжительность : 1 ч. 5 м.
Общий поток : 2944 Кбит/сек
Дата кодирования : UTC 2014-09-21 00:01:08
Программа кодирования : mkvmerge v5.2.0 ('I can't explain') built on Dec 18 2011 18:12:03
Библиотека кодирования : libebml v1.2.3 + libmatroska v1.3.0
Видео
Идентификатор : 1
Формат : AVC
Формат/Информация : Advanced Video Codec
Профиль формата : High@L4.1
Параметр CABAC формата : Да
Параметр ReFrames формата : 14 кадров
Идентификатор кодека : V_MPEG4/ISO/AVC
Продолжительность : 1 ч. 5 м.
Битрейт : 2750 Кбит/сек
Ширина : 712 пикселей
Высота : 572 пикселя
Соотношение сторон : 4:3
Соотношение сторон в оригинале : 4:3
Режим частоты кадров : Постоянный
Частота кадров : 25,000 кадров/сек
Цветовое пространство : YUV
Субдискретизация насыщенности : 4:2:0
Битовая глубина : 8 бит
Тип развёртки : Прогрессивная
Бит/(Пиксели*Кадры) : 0.270
Размер потока : 1,22 Гбайт (91%)
Библиотека кодирования : x264 core 142 r2431 ac76440
Настройки программы : cabac=1 / ref=14 / deblock=1:-2:-2 / analyse=0x3:0x133 / me=umh / subme=10 / psy=1 / psy_rd=1.05:0.15 / mixed_ref=1 / me_range=24 / chroma_me=1 / trellis=2 / 8x8dct=1 / cqm=0 / deadzone=21,11 / fast_pskip=0 / chroma_qp_offset=-3 / threads=12 / lookahead_threads=2 / sliced_threads=0 / nr=0 / decimate=0 / interlaced=0 / bluray_compat=0 / constrained_intra=0 / bframes=7 / b_pyramid=2 / b_adapt=2 / b_bias=0 / direct=3 / weightb=1 / open_gop=0 / weightp=2 / keyint=250 / keyint_min=25 / scenecut=40 / intra_refresh=0 / rc=2pass / mbtree=0 / bitrate=2750 / ratetol=1.0 / qcomp=0.65 / qpmin=0 / qpmax=39 / qpstep=4 / cplxblur=20.0 / qblur=0.5 / ip_ratio=1.40 / pb_ratio=1.30 / aq=1:1.00
Язык : English
Default : Да
Forced : Нет
Цветовой диапазон : Limited
Основные цвета : BT.601 PAL
Характеристики трансфера : BT.470 System B, BT.470 System G
Коэффициенты матрицы : BT.601
Аудио
Идентификатор : 2
Формат : AC-3
Формат/Информация : Audio Coding 3
Расширение режима : CM (complete main)
Параметр Endianness формата : Big
Идентификатор кодека : A_AC3
Продолжительность : 1 ч. 5 м.
Вид битрейта : Постоянный
Битрейт : 192 Кбит/сек
Каналы : 2 канала
Расположение каналов : Front: L R
Частота : 48,0 КГц
Метод сжатия : С потерями
Размер потока : 89,4 Мбайт (7%)
Язык : Russian
Default : Да
Forced

Релиз от:
Автор релиза:



   Похожие торренты   Торрент   Размер 
В этой теме нет новых непрочитанных сообщений. Американская трагедия [01-04 из 04] (1981) SATRip

115 | 12

4.37 ГБ

В этой теме нет новых непрочитанных сообщений. Михаил Задорнов - Американская трагедия (2006) DVD5

2 | 22

3.72 ГБ

В этой теме нет новых непрочитанных сообщений. Михаил Задорнов - Американская трагедия + Бонус Тет-А-Тет (2007) DVDRip

9 | 80

1.81 ГБ

В этой теме нет новых непрочитанных сообщений. Трагедия смешного человека / Tragedia di un uomo ridicolo (1981) DVDRip - Generalfilm

1 | 2

1.46 ГБ

В этой теме нет новых непрочитанных сообщений. Мы, нижеподписавшиеся (1981) SATRip-AVC от ExKinoRay

93 | 18

2.46 ГБ

В этой теме нет новых непрочитанных сообщений. Чёрный треугольник (1981) SATRip-AVC от ExKinoRay

90 | 8

2.94 ГБ

В этой теме нет новых непрочитанных сообщений. Наше призвание (1981) SATRip-AVC от ExKinoRay

19 | 8

3.22 ГБ




Вы не можете начинать темы
Вы не можете отвечать на сообщения
Вы не можете редактировать свои сообщения
Вы не можете удалять свои сообщения
Вы не можете добавлять вложения

Перейти:  
Для Мосгорсуда, Роскомнадзора и рекламодателей: mosgorsud-torrent[собачка]yandex.ru
 Вход
ppkBB3cker v.2 © 2008-2014 @ PPK
[ Time : 0.037s | 15 Queries | GZIP : On ]

Торрент трекер RUTOR.IN, Не можете зайти на rutor.org? Какой новый адрес рутор? Какое зеркало рутор? Не работает rutor.org и зеркала? Тогда наш торрент специально для вас. Rutor.in неофициальное зеркало rutor. В случае если у Вас заблокирован rutor или вдруг Вы не можете на него зайти, то Вы без труда сможете скачать бесплатно и без рекламы последние новинки кино, игр, сериалов и прочего у нас, на Rutor.in. Не нужно использовать прокси, чтобы зайти на рутор, достаточно воспользоваться нашим ресурсом. Все новые фильмы, игры, сериалы, книги и музыка за 2013 и 2014 годы через торрент бесплатно. Скачивайте фильмы в хорошем качестве, игры для пк, xbox, playstation без регистрации. У нас вы найдете новые Зарубежные сериалы и Русские сериалы 2013, 2014, 2015 годов. Оставайтесь с нами, качайте любимые фильмы, игры, сериалы, книги и музыку.