img image001 image001 image001 image001 image001 image001 image001 image001 image001 image001 image001 image001 image001 image001 image001

Planets Sun Sun Sun
Статистика раздачи
Автор: Nickolas3434 | Размер: 1.47 ГБ | Добавлен: 29 ноя 2015
Раздают: 200    Качают: 23
Скачать торрент
Скачать торрент
Описание торрента

СообщениеДобавлено: 29 ноя 2015 


Информация о фильме
Название: Охота на пиранью
Год выхода: 2006
Жанр: Боевик, драма
Режиссёр: Андрей Кавун
В ролях: Владимир Машков, Евгений Миронов, Светлана Антонова, Сергей Гармаш, Андрей Мерзликин, Михаил Ефремов, Виктория Исакова, Алексей Горбунов
О фильме: Под видом совместного отпуска агент спецподразделения "Пираньи" Кирилл Мазур с коллегой Ольгой направляются на Север с заданием ликвидировать подводный склад секретного оружия. Неожиданно обнаруживается, что смертоносное оружие захвачено бандитами под предводительством нового "хозяина тайги" Прохора, который на досуге развлекается настоящей охотой на людей. Мазур не ожидал, что ему придется сменить привычный автомат на самодельный костяной нож, и спасать себя и напарницу, вместо того, чтобы спасать мир...
Доп. информация: Телеверсия длинее киноверсии примерно на 50 минут

Страна: Россия
Студия: Рекун-ТВ
Продолжительность: 02:48:02
Перевод: Не требуется (оригинальный)
Файл
Формат: avi
Качество: SATRip (DVB)
Видео: XviD, 656х320, 25fps, 1114kbps
Аудио: MPEG Layer 3, 2ch, 48000Hz, 128kbps

General
Complete name : Ohota.Na.Piranu.2006.O.SATRip.1400.CurHaJI.avi
Format : AVI
Format/Info : Audio Video Interleave
File size : 1.47 GiB
Duration : 2h 48mn
Overall bit rate : 1 252 Kbps
Movie name : Ohota.Na.Piranu.2006.O.SATRip.1400.CurHaJI
Writing application : Lavf53.13.0
Writing library : VirtualDub build 35491/release
Video
ID : 0
Format : MPEG-4 Visual
Format profile : Advanced Simple@L5
Format settings, BVOP : 2
Format settings, QPel : No
Format settings, GMC : No warppoints
Format settings, Matrix : Custom
Codec ID : XVID
Codec ID/Hint : XviD
Duration : 2h 48mn
Bit rate : 1 114 Kbps
Width : 656 pixels
Height : 320 pixels
Display aspect ratio : 2.050
Frame rate : 25.000 fps
Color space : YUV
Chroma subsampling : 4:2:0
Bit depth : 8 bits
Scan type : Progressive
Compression mode : Lossy
Bits/(Pixel*Frame) : 0.212
Stream size : 1.31 GiB (89%)
Writing library : XviD 64
Audio
ID : 1
Format : MPEG Audio
Format version : Version 1
Format profile : Layer 3
Codec ID : 55
Codec ID/Hint : MP3
Duration : 2h 48mn
Bit rate mode : Constant
Bit rate : 128 Kbps
Channel(s) : 2 channels
Sampling rate : 48.0 KHz
Compression mode : Lossy
Stream size : 154 MiB (10%)
Alignment : Split accross interleaves
Interleave, duration : 40 ms (1.00 video frame)
Interleave, preload duration : 500 ms
Writing library : L3.99r
Encoding settings : -m s -V 4 -q 2 -lowpass 17 -b 128


Релиз от:



   Похожие торренты   Торрент   Размер 
В этой теме нет новых непрочитанных сообщений. Охота на пиранью (2006) WEBRip-AVC | Телеверсия

331 | 25

2.23 ГБ

В этой теме нет новых непрочитанных сообщений. Охота на пиранью (2006) SATRip-AVC | Телевизионная версия

54 | 14

2.65 ГБ

В этой теме нет новых непрочитанных сообщений. Охота на пиранью (2006) SATRip | Полная версия

552 | 33

2.06 ГБ

В этой теме нет новых непрочитанных сообщений. Охота на пиранью (2006) SATRip от Scarabey | Телевизионная версия

61 | 6

2.89 ГБ

В этой теме нет новых непрочитанных сообщений. Охота на пиранью (2006) DVDRip-AVC

531 | 56

2.9 ГБ

В этой теме нет новых непрочитанных сообщений. Охота на пиранью (2006) DVDRip

49 | 8

1.45 ГБ

В этой теме нет новых непрочитанных сообщений. Охота на пиранью (2006) DVDRip

218 | 14

1.37 ГБ




Вы не можете начинать темы
Вы не можете отвечать на сообщения
Вы не можете редактировать свои сообщения
Вы не можете удалять свои сообщения
Вы не можете добавлять вложения

Перейти:  
Для Мосгорсуда, Роскомнадзора и рекламодателей: mosgorsud-torrent[собачка]yandex.ru
 Вход
ppkBB3cker v.2 © 2008-2014 @ PPK
[ Time : 0.046s | 16 Queries | GZIP : Off ]

cron