img image001 image001 image001 image001 image001 image001 image001 image001 image001 image001 image001 image001 image001 image001 image001

Planets Sun Sun Sun
Статистика раздачи
Автор: Nickolas3434 | Размер: 3.98 ГБ | Добавлен: 01 дек 2015
Раздают: 838    Качают: 104
Скачать торрент
Скачать торрент
Описание торрента

СообщениеДобавлено: 01 дек 2015 


Информация о фильме
Название: Грозовые ворота
Год выхода: 2006
Жанр: Драма, военный
Режиссер: Андрей Малюков
В ролях: Михаил Пореченков, Вячеслав Разбегаев, Анатолий Пашинин, Андрей Краско, Иван Жидков, Евгений Потапенко, Михаил Ефремов, Даниил Страхов, Елизавета Боярская, Марина Могилевская, Юрий Цурило, Виктория Толстоганова, Анастасия Цветаева, Борис Щербаков, Екатерина Климова, Александр Лойе, Максим Зыков, Марина Яковлева, Раиса Рязанова, Алексей Шевченков, Александр Фисенко, Илья Бледный
О фильме:
Люди на войне. В бою. В разведке. В отступлении. В атаке… Дни и ночи, проведенные в полевой обстановке заставляют задуматься и вспомнить — почему мы здесь? И в памяти каждого выплывают картины из прошлой и такой далекой теперь жизни. У каждого героя своя предыстория. Кто-то открывает для себя мир, кто-то сбегает от любви, кто-то доказывает свою самостоятельность, кто-то мстит… Такие разные, они оказываются в бою, плечом к плечу: вчерашние школьники и опытные полевые командиры. Фильм раскрывает внутренний мир каждого из них, желания, мечты, боль, надежды… Рота старшего лейтенанта Александра Доронина, в которой служат молодые солдаты Константин Ветров и Николай Горшков, откомандирована на Северный Кавказ. Командир полка полковник Галкин поручает Доронину оборону перевала "Грозовые ворота". К роте Доронина прикомандировывают группу спецназа ГРУ под командованием майора Егорова, у которого несколько лет назад от рук террористов погибли жена и сын. Вскоре по прибытии на перевал, Егоров знакомит Доронина со своим доверенным лицом Шахом, бывшим чеченским генералом. У Шаха имеется достоверная информация, что к перевалу стягиваются крупные силы боевиков. Они готовятся нанести роте сокрушительный удар... Экранизация по произведению: Александр Тамоников «Рота».
Страна: Россия
Продолжительность: 4 х ~ 00:50:00
Перевод: не требуется
Файл
Кодек: x264
Качество: DVDRip-AVC
Видео: MPEG-4 AVC, ~ 2650 Кбит/с, 718x430@766x430
Звук: AC3, 2 ch, 192 Кбит/с

raw [info]: 718x430p 16:15 @ 25/1 fps (cfr)
x264 [info]: using SAR=16/15
x264 [info]: using cpu capabilities: MMX2 SSE2Fast SSSE3 SSE4.2 AVX
x264 [info]: profile High, level 4.1
x264 [info]: frame I:785 Avg QP:16.72 size: 55711
x264 [info]: frame P:19534 Avg QP:19.65 size: 23299
x264 [info]: frame B:55369 Avg QP:21.30 size: 9098
===============================================================================================================
Общее
Уникальный идентификатор : 245395492008630016116196820811511125920 (0xB89D73DF68CA2F33A90928E473D657A0)
Полное имя : I:МОИ РИПЫГрозовые ворота_2006-DVDRip-AVCГрозовые ворота-1.mkv
Формат : Matroska
Версия формата : Version 2
Размер файла : 1,04 Гбайт
Продолжительность : 52 м.
Общий поток : 2843 Кбит/сек
Дата кодирования : UTC 2014-10-09 13:23:58
Программа кодирования : mkvmerge v5.2.0 ('I can't explain') built on Dec 18 2011 18:12:03
Библиотека кодирования : libebml v1.2.3 + libmatroska v1.3.0
Видео
Идентификатор : 1
Формат : AVC
Формат/Информация : Advanced Video Codec
Профиль формата : High@L4.1
Параметр CABAC формата : Да
Параметр ReFrames формата : 12 кадров
Идентификатор кодека : V_MPEG4/ISO/AVC
Продолжительность : 52 м.
Битрейт : 2650 Кбит/сек
Ширина : 718 пикселей
Высота : 430 пикселей
Соотношение сторон : 16:9
Режим частоты кадров : Постоянный
Частота кадров : 25,000 кадров/сек
Цветовое пространство : YUV
Субдискретизация насыщенности : 4:2:0
Битовая глубина : 8 бит
Тип развёртки : Прогрессивная
Бит/(Пиксели*Кадры) : 0.343
Размер потока : 973 Мбайт (91%)
Библиотека кодирования : x264 core 142 r2431 ac76440
Настройки программы : cabac=1 / ref=12 / deblock=1:-2:-2 / analyse=0x3:0x133 / me=umh / subme=10 / psy=1 / psy_rd=1.05:0.15 / mixed_ref=1 / me_range=32 / chroma_me=1 / trellis=2 / 8x8dct=1 / cqm=0 / deadzone=21,11 / fast_pskip=0 / chroma_qp_offset=-3 / threads=12 / lookahead_threads=2 / sliced_threads=0 / nr=0 / decimate=0 / interlaced=0 / bluray_compat=0 / constrained_intra=0 / bframes=7 / b_pyramid=2 / b_adapt=2 / b_bias=0 / direct=3 / weightb=1 / open_gop=0 / weightp=2 / keyint=250 / keyint_min=25 / scenecut=40 / intra_refresh=0 / rc=2pass / mbtree=0 / bitrate=2650 / ratetol=1.0 / qcomp=0.65 / qpmin=0 / qpmax=39 / qpstep=4 / cplxblur=20.0 / qblur=0.5 / ip_ratio=1.40 / pb_ratio=1.30 / aq=1:1.00
Язык : English
Default : Да
Forced : Нет
Основные цвета : BT.601 PAL
Характеристики трансфера : BT.470 System B, BT.470 System G
Коэффициенты матрицы : BT.601
Аудио
Идентификатор : 2
Формат : AC-3
Формат/Информация : Audio Coding 3
Расширение режима : CM (complete main)
Параметр Endianness формата : Big
Идентификатор кодека : A_AC3
Продолжительность : 52 м.
Вид битрейта : Постоянный
Битрейт : 192 Кбит/сек
Каналы : 2 канала
Расположение каналов : Front: L R
Частота : 48,0 КГц
Битовая глубина : 16 бит
Метод сжатия : С потерями
Размер потока : 72,0 Мбайт (7%)
Язык : Russian
Default : Да
Forced : Нет

Релиз от:
Автор релиза:



   Похожие торренты   Торрент   Размер 
В этой теме нет новых непрочитанных сообщений. Грозовые ворота (2006) DVDRip

746 | 108

1.37 ГБ

В этой теме нет новых непрочитанных сообщений. Грозовые ворота (2006) DVDRip

89 | 9

1.37 ГБ

В этой теме нет новых непрочитанных сообщений. Грозовые ворота (2006) DVDRip-AVC

223 | 15

3.37 ГБ

В этой теме нет новых непрочитанных сообщений. Грозовые ворота (2006) DVDRip

881 | 70

2.74 ГБ

В этой теме нет новых непрочитанных сообщений. Грозовые ворота (2006) DVDRip | КПК от Lebanon

191 | 6

657.24 МБ

В этой теме нет новых непрочитанных сообщений. Грозовые ворота (2006) DVDRip от 0ptimus

205 | 24

2.17 ГБ

В этой теме нет новых непрочитанных сообщений. Грозовые ворота (2006) DVD9

121 | 11

7.74 ГБ




Вы не можете начинать темы
Вы не можете отвечать на сообщения
Вы не можете редактировать свои сообщения
Вы не можете удалять свои сообщения
Вы не можете добавлять вложения

Перейти:  
Для Мосгорсуда, Роскомнадзора и рекламодателей: mosgorsud-torrent[собачка]yandex.ru
 Вход
ppkBB3cker v.2 © 2008-2014 @ PPK
[ Time : 0.040s | 16 Queries | GZIP : Off ]

Торрент трекер RUTOR.IN, Не можете зайти на rutor.org? Какой новый адрес рутор? Какое зеркало рутор? Не работает rutor.org и зеркала? Тогда наш торрент специально для вас. Rutor.in неофициальное зеркало rutor. В случае если у Вас заблокирован rutor или вдруг Вы не можете на него зайти, то Вы без труда сможете скачать бесплатно и без рекламы последние новинки кино, игр, сериалов и прочего у нас, на Rutor.in. Не нужно использовать прокси, чтобы зайти на рутор, достаточно воспользоваться нашим ресурсом. Все новые фильмы, игры, сериалы, книги и музыка за 2013 и 2014 годы через торрент бесплатно. Скачивайте фильмы в хорошем качестве, игры для пк, xbox, playstation без регистрации. У нас вы найдете новые Зарубежные сериалы и Русские сериалы 2013, 2014, 2015 годов. Оставайтесь с нами, качайте любимые фильмы, игры, сериалы, книги и музыку.
cron