img image001 image001 image001 image001 image001 image001 image001 image001 image001 image001 image001 image001 image001 image001 image001

Planets Sun Sun Sun
Статистика раздачи
Автор: Nickolas3434 | Размер: 1.46 ГБ | Добавлен: 01 дек 2015
Раздают: 333    Качают: 55
Скачать торрент
Скачать торрент
Описание торрента

СообщениеДобавлено: 01 дек 2015 


Информация о фильме
Название: Под знаком Луны
Год выхода: 2015
Жанр: Драма, мелодрама
Режиссер: Пётр Степин
В ролях: Евгения Нохрина, Кирилл Дыцевич, Олег Гарбуз, Валентина Лосовская, Светлана Кожемякина, Алиса Петрова, Андрей Сенькин, Алеся Пуховая, Михаил Каминский (II), Анатолий Голуб, Анастасия Боброва, Михаил Долгополов (II), Дмитрий Тесловский
О фильме:
Главная героиня внезапно узнает, что росла в приемной семье. Настоящие родители 18 лет назад продали ее, как ненужную вещь. Обуреваемая ненавистью, она жаждет найти их, но когда находит, ситуация меняется. Ее настоящей матери плохо, она при смерти, и ненависть сменяется жалостью, а вместе с тем - желанием помочь. Однако против этого восстают приемные родители, которые считают, что дочь всем на свете обязана только им. Выход из такой сложной ситуации найти нелегко...

Страна: Россия
Студия: Продюсерский центр "Фабула", "Паламеда Продакшн"
Продолжительность: 02:55:31
Перевод: Не требуется
Файл
Кодек: XviD
Качество: HDTVRip
Видео: 624x352 (1.77:1), 25 fps, XviD build 73 ~1049 kbps avg, 0.19 bit/pixel
Звук: 48 kHz, MPEG Layer 3, 2 ch, ~128.00 kbps avg
Субтитры: Отсутствует
Семпл
General
Complete name : E:Изготовление риповPod.znakom.luny.2015.HDTVRip.shkiper.avi
Format : AVI
Format/Info : Audio Video Interleave
File size : 1.46 GiB
Duration : 2h 55mn
Overall bit rate : 1 187 Kbps
Writing application : VirtualDubMod 1.5.10.3 | www.virtualdub-fr.org || (build 2550/release)
Writing library : VirtualDub build 35491/release
Video
ID : 0
Format : MPEG-4 Visual
Format profile : Advanced Simple@L5
Format settings, BVOP : 1
Format settings, QPel : No
Format settings, GMC : No warppoints
Format settings, Matrix : Custom
Codec ID : XVID
Codec ID/Hint : XviD
Duration : 2h 55mn
Bit rate : 1 049 Kbps
Width : 624 pixels
Height : 352 pixels
Display aspect ratio : 16:9
Frame rate : 25.000 fps
Color space : YUV
Chroma subsampling : 4:2:0
Bit depth : 8 bits
Scan type : Progressive
Compression mode : Lossy
Bits/(Pixel*Frame) : 0.191
Stream size : 1.29 GiB (88%)
Writing library : XviD 73
Audio
ID : 1
Format : MPEG Audio
Format version : Version 1
Format profile : Layer 3
Mode : Joint stereo
Mode extension : MS Stereo
Codec ID : 55
Codec ID/Hint : MP3
Duration : 2h 55mn
Bit rate mode : Constant
Bit rate : 128 Kbps
Channel(s) : 2 channels
Sampling rate : 48.0 KHz
Compression mode : Lossy
Stream size : 161 MiB (11%)
Alignment : Aligned on interleaves
Interleave, duration : 40 ms (1.00 video frame)
Interleave, preload duratio : 504 ms
Writing library : LAME3.99r
Encoding settings : -m j -V 4 -q 2 -lowpass 17 -b 128

Релиз от:



   Похожие торренты   Торрент   Размер 
В этой теме нет новых непрочитанных сообщений. Под знаком Луны [01-02 из 02] (2015) HDTVRip-AVC от Files-x

429 | 105

2.71 ГБ

В этой теме нет новых непрочитанных сообщений. Под знаком Луны [01-02 из 02] (2015) HDTVRip от MediaClub | КПК

45 | 29

805.19 МБ

В этой теме нет новых непрочитанных сообщений. Под знаком Луны [01-02 из 02] (2015) HDTVRip от Files-x

750 | 118

2.73 ГБ

В этой теме нет новых непрочитанных сообщений. Под знаком Луны [01-02 из 02] (2015) HDTVRip 720p от MediaClub

135 | 24

7.39 ГБ

В этой теме нет новых непрочитанных сообщений. Под знаком Луны [01-02 из 04] (2015) SATRip

29 | 2

1.18 ГБ

В этой теме нет новых непрочитанных сообщений. Под знаком Луны [01-04 из 04] (2015) SATRip

1133 | 375

2.44 ГБ

В этой теме нет новых непрочитанных сообщений. Под знаком Луны [01-02 из 02] (2015) HDTV 1080i

151 | 48

10.5 ГБ




Вы не можете начинать темы
Вы не можете отвечать на сообщения
Вы не можете редактировать свои сообщения
Вы не можете удалять свои сообщения
Вы не можете добавлять вложения

Перейти:  
Для Мосгорсуда, Роскомнадзора и рекламодателей: mosgorsud-torrent[собачка]yandex.ru
 Вход
ppkBB3cker v.2 © 2008-2014 @ PPK
[ Time : 0.022s | 14 Queries | GZIP : On ]

Торрент трекер RUTOR.IN, Не можете зайти на rutor.org? Какой новый адрес рутор? Какое зеркало рутор? Не работает rutor.org и зеркала? Тогда наш торрент специально для вас. Rutor.in неофициальное зеркало rutor. В случае если у Вас заблокирован rutor или вдруг Вы не можете на него зайти, то Вы без труда сможете скачать бесплатно и без рекламы последние новинки кино, игр, сериалов и прочего у нас, на Rutor.in. Не нужно использовать прокси, чтобы зайти на рутор, достаточно воспользоваться нашим ресурсом. Все новые фильмы, игры, сериалы, книги и музыка за 2013 и 2014 годы через торрент бесплатно. Скачивайте фильмы в хорошем качестве, игры для пк, xbox, playstation без регистрации. У нас вы найдете новые Зарубежные сериалы и Русские сериалы 2013, 2014, 2015 годов. Оставайтесь с нами, качайте любимые фильмы, игры, сериалы, книги и музыку.