img image001 image001 image001 image001 image001 image001 image001 image001 image001 image001 image001 image001 image001 image001 image001

Planets Sun Sun Sun
Статистика раздачи
Автор: Nickolas3434 | Размер: 11.62 ГБ | Добавлен: 01 дек 2015
Раздают: 25    Качают: 9
Скачать торрент
Скачать торрент
Описание торрента

СообщениеДобавлено: 01 дек 2015 


Информация о фильме
Название: Возвращение
Год выхода: 2003
Жанр: триллер, драма, детектив
Режиссер: Андрей Звягинцев
В ролях: Константин Лавроненко, Владимир Гарин, Иван Добронравов, Наталия Вдовина, Елизавета Александрова, Лазарь Дубовик, Любовь Казакова, Галина Попова, Алексей Сукновалов, Андрей Сумин
О фильме: В жизни двух братьев неожиданно возникает отец, знакомый им только по фотографии десятилетней давности. Появление странного, чужого для них человека переворачивает их жизнь, когда отец вырывает ребят из привычного существования в тихом родном городе и привозит на заброшенный остров…

Выпущено: Ren Film
Продолжительность: 01:50:23
Перевод: Оригинал (русский), дублированный (французский)
Файл
Качество: BDRip (1080p)
Видео: 1920x1036 (1,85:1), 23.976 fps, 12930 kbps
Аудио #1: Русский (DTS, 6 ch, 1510 kbps)
Аудио #2: Русский (AC3, 6 ch, 448 kbps)
Аудио #3: Французский (AC3, 2 ch, 192 kbps)
Формат : Matroska
Версия формата : Version 2
Размер файла : 11,6 Гбайт
Продолжительность : 1 ч. 50 м.
Общий поток : 15,1 Мбит/сек
Название фильма : ~V ad~
Дата кодирования : UTC 2015-11-30 13:44:28
Программа кодирования : mkvmerge v6.5.0 ('Isn't she lovely') built on Oct 20 2013 12:50:05
Библиотека кодирования : libebml v1.3.0 + libmatroska v1.4.1
Attachements : poster.jpg
Видео
Идентификатор : 1
Формат : AVC
Формат/Информация : Advanced Video Codec
Профиль формата : High@L4.1
Параметр CABAC формата : Да
Параметр ReFrames формата : 4 кадра
Идентификатор кодека : V_MPEG4/ISO/AVC
Продолжительность : 1 ч. 50 м.
Битрейт : 12,9 Мбит/сек
Ширина : 1920 пикселей
Высота : 1036 пикселей
Соотношение сторон : 1,85:1
Режим частоты кадров : Постоянный
Частота кадров : 23,976 кадра/сек
Цветовое пространство : YUV
Субдискретизация насыщенности : 4:2:0
Битовая глубина : 8 бит
Тип развёртки : Прогрессивная
Бит/(Пиксели*Кадры) : 0.271
Размер потока : 9,73 Гбайт (84%)
Заголовок : ~V~
Библиотека кодирования : x264 core 148 r2579 73ae2d1
Настройки программы : cabac=1 / ref=4 / deblock=1:-3:-3 / analyse=0x3:0x133 / me=umh / subme=11 / psy=1 / psy_rd=1.00:0.00 / mixed_ref=1 / me_range=32 / chroma_me=1 / trellis=2 / 8x8dct=1 / cqm=0 / deadzone=21,11 / fast_pskip=0 / chroma_qp_offset=-2 / threads=12 / lookahead_threads=1 / sliced_threads=0 / nr=0 / decimate=0 / interlaced=0 / bluray_compat=0 / constrained_intra=0 / bframes=12 / b_pyramid=2 / b_adapt=2 / b_bias=0 / direct=3 / weightb=1 / open_gop=0 / weightp=2 / keyint=240 / keyint_min=23 / scenecut=40 / intra_refresh=0 / rc=2pass / mbtree=0 / bitrate=12930 / ratetol=1.0 / qcomp=0.60 / qpmin=0 / qpmax=69 / qpstep=4 / cplxblur=20.0 / qblur=0.5 / ip_ratio=1.40 / pb_ratio=1.30 / aq=3:1.00
Язык : English
Default : Да
Forced : Нет
Аудио #1
Идентификатор : 2
Формат : DTS
Формат/Информация : Digital Theater Systems
Режим : 16
Параметр Endianness формата : Big
Идентификатор кодека : A_DTS
Продолжительность : 1 ч. 50 м.
Вид битрейта : Постоянный
Битрейт : 1510 Кбит/сек
Каналы : 6 каналов
Расположение каналов : Front: L C R, Side: L R, LFE
Частота : 48,0 КГц
Битовая глубина : 24 бит
Метод сжатия : С потерями
Размер потока : 1,16 Гбайт (10%)
Язык : Russian
Default : Нет
Forced : Нет
Аудио #2
Идентификатор : 3
Формат : AC-3
Формат/Информация : Audio Coding 3
Расширение режима : CM (complete main)
Параметр Endianness формата : Big
Идентификатор кодека : A_AC3
Продолжительность : 1 ч. 50 м.
Вид битрейта : Постоянный
Битрейт : 448 Кбит/сек
Каналы : 6 каналов
Расположение каналов : Front: L C R, Side: L R, LFE
Частота : 48,0 КГц
Метод сжатия : С потерями
Размер потока : 354 Мбайт (3%)
Язык : Russian
Default : Да
Forced : Да
Аудио #3
Идентификатор : 4
Формат : AC-3
Формат/Информация : Audio Coding 3
Расширение режима : CM (complete main)
Параметр Endianness формата : Big
Идентификатор кодека : A_AC3
Продолжительность : 1 ч. 50 м.
Вид битрейта : Постоянный
Битрейт : 192 Кбит/сек
Каналы : 2 канала
Расположение каналов : Front: L R
Частота : 48,0 КГц
Метод сжатия : С потерями
Размер потока : 152 Мбайт (1%)
Язык : French
Default : Нет
Forced : Нет
Меню
00:00:00.000 : en:Chapter 00
00:11:17.635 : en:Chapter 01
00:22:29.681 : en:Chapter 02
00:37:53.020 : en:Chapter 03
00:44:38.091 : en:Chapter 04
01:04:27.363 : en:Chapter 05
01:19:25.844 : en:Chapter 06
01:30:58.077 : en:Chapter 07
01:45:01.169 : en:Chapter 08
x264 [info]: frame I:792 Avg QP:17.31 size:212159
x264 [info]: frame P:27577 Avg QP:20.55 size:114343
x264 [info]: frame B:130415 Avg QP:22.74 size: 56575



Релиз от:



   Похожие торренты   Торрент   Размер 
В этой теме нет новых непрочитанных сообщений. Возвращение (2003) BDRip-AVC | Restored version

76 | 1

2.43 ГБ

В этой теме нет новых непрочитанных сообщений. Возвращение (2003) BDRip 720p | Restored version

205 | 10

8.37 ГБ

В этой теме нет новых непрочитанных сообщений. Возвращение (2003) BDRip 720p | Restored version

115 | 7

4.37 ГБ

В этой теме нет новых непрочитанных сообщений. Возвращение (2003) Blu-Ray | Restored version

18 | 9

22.18 ГБ

В этой теме нет новых непрочитанных сообщений. Возвращение (2003) BDRemux | Restored version

9 | 3

21.25 ГБ

В этой теме нет новых непрочитанных сообщений. Возвращение (2003) HDRip от MegaPeer | Restored version

15 | 2

1.45 ГБ

В этой теме нет новых непрочитанных сообщений. Возвращение (2003) HDRip от Scarabey | Restored version

153 | 10

745.94 МБ




Вы не можете начинать темы
Вы не можете отвечать на сообщения
Вы не можете редактировать свои сообщения
Вы не можете удалять свои сообщения
Вы не можете добавлять вложения

Перейти:  
Для Мосгорсуда, Роскомнадзора и рекламодателей: mosgorsud-torrent[собачка]yandex.ru
 Вход
ppkBB3cker v.2 © 2008-2014 @ PPK
[ Time : 0.051s | 18 Queries | GZIP : Off ]

cron