img image001 image001 image001 image001 image001 image001 image001 image001 image001 image001 image001 image001 image001 image001 image001

Planets Sun Sun Sun
Статистика раздачи
Автор: PriZraK | Размер: 719.34 МБ | Добавлен: 05 дек 2015
Раздают: 242    Качают: 13
Скачать торрент
Скачать торрент
Описание торрента

СообщениеДобавлено: 05 дек 2015 


Информация о фильме
Название: Всё просто
Год выхода: 2012
Жанр: Мелодрама, комедия
Режиссер: Соня Карпунина
В ролях: Соня Карпунина, Агния Кузнецова, Клим Шипенко, Константин Крюков, Александр Яценко, Артем Быстров, Любовь Толкалина, Михаил Бабичев, Александр Самойленко, Донатас Грудович

О фильме:
Надя из Питера, учится в Лондоне. Родители создают возможность жить без особых забот и хлопот. Молодой человек Женя работает в Москве в крупной компании и подает большие надежды. Одно расстройство — из-за перспективной работы Женя переехал в Москву, а Надя осталась в Лондоне. 3000 километров — слишком далеко. И Надя решает сделать Жене сюрприз — приехать в гости без предупреждения. В итоге, сюрпризы ожидают не только Женю, но и Надю.


Страна: Россия
Студия: ВайТ Медиа
Продолжительность: 01:34:25
Перевод: Не требуется

Файл
Кодек: XviD
Качество: HDTVRip
Видео: 608x256 (2.38:1), 25 fps, XviD build 73 ~927 kbps avg, 0.24 bit/pixel
Звук: 48 kHz, MPEG Layer 3, 2 ch, ~128.00 kbps avg
Субтитры: Отсутствует

Семпл
General
Complete name : E:Изготовление риповVse.prosto.2012.HDTVRip shkiper.avi
Format : AVI
Format/Info : Audio Video Interleave
File size : 719 MiB
Duration : 1h 34mn
Overall bit rate : 1 065 Kbps
Writing application : VirtualDubMod 1.5.10.3 | www.virtualdub-fr.org || (build 2550/release)
Writing library : VirtualDubMod build 2550/release

Video
ID : 0
Format : MPEG-4 Visual
Format profile : Advanced Simple@L5
Format settings, BVOP : 1
Format settings, QPel : No
Format settings, GMC : No warppoints
Format settings, Matrix : Custom
Codec ID : XVID
Codec ID/Hint : XviD
Duration : 1h 34mn
Bit rate : 927 Kbps
Width : 608 pixels
Height : 256 pixels
Display aspect ratio : 2.40:1
Frame rate : 25.000 fps
Color space : YUV
Chroma subsampling : 4:2:0
Bit depth : 8 bits
Scan type : Progressive
Compression mode : Lossy
Bits/(Pixel*Frame) : 0.238
Stream size : 626 MiB (87%)
Writing library : XviD 73

Audio
ID : 1
Format : MPEG Audio
Format version : Version 1
Format profile : Layer 3
Mode : Joint stereo
Mode extension : MS Stereo
Codec ID : 55
Codec ID/Hint : MP3
Duration : 1h 34mn
Bit rate mode : Constant
Bit rate : 128 Kbps
Channel(s) : 2 channels
Sampling rate : 48.0 KHz
Compression mode : Lossy
Stream size : 86.4 MiB (12%)
Alignment : Aligned on interleaves
Interleave, duration : 40 ms (1.00 video frame)
Interleave, preload duratio : 504 ms
Writing library : LAME3.99r
Encoding settings : -m j -V 4 -q 2 -lowpass 17 -b 128

Релиз от:



   Похожие торренты   Торрент   Размер 
В этой теме нет новых непрочитанных сообщений. Поцелуй в голову (2012) HDTVRip от Шкипер

192 | 15

746 МБ

В этой теме нет новых непрочитанных сообщений. Во имя любви (2015) HDTVRip от Шкипер

992 | 41

745.49 МБ

В этой теме нет новых непрочитанных сообщений. Соучастники (2015) HDTVRip от Шкипер

265 | 15

745.25 МБ

В этой теме нет новых непрочитанных сообщений. Фокусник (2010) HDTVRip от Шкипер

310 | 13

745.29 МБ

В этой теме нет новых непрочитанных сообщений. Мой грех (2010) HDTVRip от Шкипер

137 | 9

745.63 МБ

В этой теме нет новых непрочитанных сообщений. Исцеление [01-02 из 02] (2015) HDTVRip от Шкипер

108 | 54

1.46 ГБ

В этой теме нет новых непрочитанных сообщений. Гость (2013) HDTVRip от Шкипер

93 | 12

745.21 МБ




Вы не можете начинать темы
Вы не можете отвечать на сообщения
Вы не можете редактировать свои сообщения
Вы не можете удалять свои сообщения
Вы не можете добавлять вложения

Перейти:  
Для Мосгорсуда, Роскомнадзора и рекламодателей: mosgorsud-torrent[собачка]yandex.ru
 Вход
ppkBB3cker v.2 © 2008-2014 @ PPK
[ Time : 0.042s | 16 Queries | GZIP : Off ]

cron