img image001 image001 image001 image001 image001 image001 image001 image001 image001 image001 image001 image001 image001 image001 image001

Planets Sun Sun Sun
Статистика раздачи
Автор: PriZraK | Размер: 1.45 ГБ | Добавлен: 06 дек 2015
Раздают: 567    Качают: 51
Скачать торрент
Скачать торрент
Описание торрента

СообщениеДобавлено: 06 дек 2015 

Кавказская пленница! (2014) WEB-DLRip
Релиз от: ENGINEER



Информация о фильме

Оригинальное название: Кавказская пленница!
Год выхода: 2014
Жанр: Комедия

Режиссер: Максим Воронков

В ролях: Дмитрий Шаракоис, Анастасия Задорожная, Геннадий Хазанов, Арарат Кещян, Семён Стругачев, Сергей Степанченко, Николай Добрынин, Михаил Ефремов, Юлий Гусман, Лариса Удовиченко

О фильме:
Журналист Шурик приезжает на Кавказ, чтобы снять репортаж о местных красотах и традициях, и попадает в Горск, вотчину местного мэра города Георгия Гаджиевича Саахова. Тот, поддерживая моду, заданную губернатором, задумал жениться на молоденькой красавице, спортсменке и даже экстремалке Нине, которая так понравилась Шурику. Используя незадачливого журналиста, Саахов и его подручные похищают Нину. Но, поняв, что его разыграли, Шурик бросается спасать любимую девушку…



Страна: Россия
Студия: Продюсерский центр «Ильи Олейникова»
Продолжительность: 01:35:35
Язык: Русский

Качество: WEB-DLRip
Файл : AVI
Кодек: XviD, build 65 codec
Видео: 720 x 304; 24 fps; 1784 kbps; 0.34 bit/pixel
Аудио: 48 kHz; 6 ch; 384.00 kbps; AC3 Dolby Digital
Размер: 1488.98 Mb (1/3 DVD5)






Format : AVI
Format/Info : Audio Video Interleave
File size : 1.45 GiB
Duration : 1h 35mn
Overall bit rate : 2 178 Kbps
Movie name : Кавказская пленница! (2014)
Director : MECHANICAL ENGINEER (WEB-DL 1080p)
Genre : Comedy
Writing application : VirtualDubMod 1.5.10.3 | www.virtualdub-fr.org || (build 2550/release)
Copyright : Россия
Comment : 01:12:2015

Video
ID : 0
Format : MPEG-4 Visual
Format profile : Advanced Simple@L5
Format settings, BVOP : 1
Format settings, QPel : No
Format settings, GMC : No warppoints
Format settings, Matrix : Custom
Codec ID : XVID
Codec ID/Hint : XviD
Duration : 1h 35mn
Bit rate : 1 785 Kbps
Width : 720 pixels
Height : 304 pixels
Display aspect ratio : 2.35:1
Frame rate : 24.000 fps
Color space : YUV
Chroma subsampling : 4:2:0
Bit depth : 8 bits
Scan type : Progressive
Compression mode : Lossy
Bits/(Pixel*Frame) : 0.340
Stream size : 1.19 GiB (82%)
Writing library : XviD 65

Audio
ID : 1
Format : AC-3
Format/Info : Audio Coding 3
Mode extension : CM (complete main)
Codec ID : 2000
Duration : 1h 35mn
Bit rate mode : Constant
Bit rate : 384 Kbps
Channel(s) : 6 channels
Channel positions : Front: L C R, Side: L R, LFE
Sampling rate : 48.0 KHz
Bit depth : 16 bits
Compression mode : Lossy
Stream size : 263 MiB (18%)
Alignment : Split accross interleaves
Interleave, duration : 42 ms (1.00 video frame)
Interleave, preload duration : 500 ms



Автор рипа: MECHANICAL ENGINEER
Источник : WEB-DL 1080р

Релизы 1ENGINEER и Релизы MECHANICAL ENGINEER

ПРИЯТНОГО ПРОСМОТРА!



   Похожие торренты   Торрент   Размер 
В этой теме нет новых непрочитанных сообщений. Садись, «Кавказская пленница!», - 2 (два!) / Кавказская пленница! (2015) WEB-DLRip-AVC | Смешной перевод

1001 | 35

1.48 ГБ

В этой теме нет новых непрочитанных сообщений. Кавказская пленница! (2014) WEB-DLRip | iTunes

7469 | 179

1.37 ГБ

В этой теме нет новых непрочитанных сообщений. Кавказская пленница! (2014) WEB-DLRip-AVC | iTunes

728 | 41

1.59 ГБ

В этой теме нет новых непрочитанных сообщений. Кавказская пленница! (2014) WEB-DLRip от ivandubskoj | iTunes

1270 | 62

744.58 МБ

В этой теме нет новых непрочитанных сообщений. Кавказская пленница! (2014) WEB-DLRip-AVC от ExKinoRay | iTunes Russia

87 | 2

743.49 МБ

В этой теме нет новых непрочитанных сообщений. Кавказская пленница! (2014) WEB-DL 1080p | iTunes

1534 | 60

3.32 ГБ

В этой теме нет новых непрочитанных сообщений. Кавказская пленница! (2014) WEBDLRip от -=HD-NET=- | КПК

312 | 21

339.65 МБ




Вы не можете начинать темы
Вы не можете отвечать на сообщения
Вы не можете редактировать свои сообщения
Вы не можете удалять свои сообщения
Вы не можете добавлять вложения

Перейти:  
Для Мосгорсуда, Роскомнадзора и рекламодателей: mosgorsud-torrent[собачка]yandex.ru
 Вход
ppkBB3cker v.2 © 2008-2014 @ PPK
[ Time : 0.032s | 15 Queries | GZIP : Off ]

Торрент трекер RUTOR.IN, Не можете зайти на rutor.org? Какой новый адрес рутор? Какое зеркало рутор? Не работает rutor.org и зеркала? Тогда наш торрент специально для вас. Rutor.in неофициальное зеркало rutor. В случае если у Вас заблокирован rutor или вдруг Вы не можете на него зайти, то Вы без труда сможете скачать бесплатно и без рекламы последние новинки кино, игр, сериалов и прочего у нас, на Rutor.in. Не нужно использовать прокси, чтобы зайти на рутор, достаточно воспользоваться нашим ресурсом. Все новые фильмы, игры, сериалы, книги и музыка за 2013 и 2014 годы через торрент бесплатно. Скачивайте фильмы в хорошем качестве, игры для пк, xbox, playstation без регистрации. У нас вы найдете новые Зарубежные сериалы и Русские сериалы 2013, 2014, 2015 годов. Оставайтесь с нами, качайте любимые фильмы, игры, сериалы, книги и музыку.
cron